[MINI-HD] The Invasion (2007) อินเวชั่น บุก…เพาะพันธุ์มฤตยู [1080p] [พากย์ไทย 5.1 + เสียงอังกฤษ 5.1] [บรรยายไทย + อังกฤษ] [เสียงไทย + ซับไทย] [OPENLOAD]

0

The Invasion (2007)

โหลดหนัง The Invasion (2007) อินเวชั่น บุก…เพาะพันธุ์มฤตยู

The Invasion (2007) 1h 39min | Sci-Fi, Thriller | 17 August 2007 (USA) Summary: As a Washington, D.C. psychiatrist unearths the origin of an alien epidemic, she also discovers her son might be the only way it can be stopped.
Countries: USA, AustraliaLanguages: English, Russian

เรื่องย่อ The Invasion (2007) อินเวชั่น บุก…เพาะพันธุ์มฤตยู

ยานอวกาศที่ตกลงมาอย่างลึกลับนำไปสู่การค้นพบที่น่ากลัวด้วยการมาเยือนจากต่างดาวพร้อมกับซากชิ้นส่วน ใครก็ตามที่ได้สัมผัสมันจะเปลี่ยนไปในทางเลวร้ายอย่างที่อธิบายไม่ได้ ไม่นานนักจิตแพทย์สาวแห่งวอชิงตัน ดี.ซี. แครอล เบนเนล (นิโคล คิดแมน) และเพื่อนร่วมงาน เบน ดริสโคล (แดเนียล เครก) ก็ได้เรียนรู้ความเป็นจริงที่น่าช็อคเกี่ยวกับเชื้อโรคจากต่างดาวมันจะจู่โจมเหยื่อในช่วงเวลาที่พวกเขานอนหลับโดยที่ร่างกายภายนอกไม่มีการเปลี่ยนแปลง แต่กลับไร้ความรู้สึกและไม่มีความเป็นมนุษย์ไปได้อย่างแปลกประหลาดในขณะที่การติดเชื้อระบาดไปทั่ว ผู้คนมากมายต่างเปลี่ยนไปและไม่มีทางที่จะบอกได้ว่าใครคือคนที่เชื่อใจได้ ถึงเวลานี้แครอลได้แต่หวังว่าเธอจะตื่นอยู่ได้นานพอจนกว่าจะเจอลูกชายตัวน้อย ซึ่งอาจรู้ความลับที่จะหยุดยั้งการบุกรุกแสนร้ายกาจนี้

Complete name : [MINI-HD]_The.Invasion.2007.1080p.BrRip.AC3.x264.One2loadup.com.mkv
Format : Matroska
Format version : Version 2
File size : 2.00 GiB
Duration : 1 h 39 min
Overall bit rate : 2 878 kb/s
Movie name : [MINI-HD]_The.Invasion.2007.1080p.BrRip.AC3.x264.One2loadup.com
Encoded date : UTC 2014-05-06 12:48:08
Writing application : mkvmerge v4.0.0 (‘The Stars were mine’) built on Jun 5 2010 17:44:09
Writing library : libebml v1.0.0 + libmatroska v1.0.0

Video
ID : 1
Format : AVC
Format/Info : Advanced Video Codec
Format profile : [email protected]
Format settings : CABAC / 3 Ref Frames
Format settings, CABAC : Yes
Format settings, ReFrames : 3 frames
Codec ID : V_MPEG4/ISO/AVC
Duration : 1 h 39 min
Bit rate mode : Constant
Bit rate : 1 796 kb/s
Nominal bit rate : 2 000 kb/s / 2 000 kb/s
Width : 1 920 pixels
Height : 1 080 pixels
Display aspect ratio : 16:9
Frame rate mode : Constant
Frame rate : 25.000 FPS
Standard : NTSC
Color space : YUV
Chroma subsampling : 4:2:0
Bit depth : 8 bits
Scan type : Progressive
Bits/(Pixel*Frame) : 0.035
Stream size : 1.25 GiB (62%)
Title : [MINI-HD]_The.Invasion.2007.1080p.BrRip.AC3.x264.One2loadup.com
Writing library : x264 core 114
Encoding settings : cabac=1 / ref=3 / deblock=1:0:0 / analyse=0x3:0x113 / me=hex / subme=7 / psy=1 / psy_rd=1.00:0.00 / mixed_ref=1 / me_range=16 / chroma_me=1 / trellis=1 / 8x8dct=1 / cqm=2 / deadzone=21,11 / fast_pskip=1 / chroma_qp_offset=-2 / threads=12 / sliced_threads=0 / slices=1 / nr=0 / decimate=1 / interlaced=0 / constrained_intra=0 / bframes=3 / b_pyramid=0 / b_adapt=1 / b_bias=0 / direct=1 / weightb=1 / open_gop=2 / weightp=2 / keyint=250 / keyint_min=25 / scenecut=40 / intra_refresh=0 / rc_lookahead=40 / rc=cbr / mbtree=1 / bitrate=2000 / ratetol=1.0 / qcomp=0.60 / qpmin=3 / qpmax=69 / qpstep=4 / vbv_maxrate=2000 / vbv_bufsize=1998 / nal_hrd=cbr / ip_ratio=1.40 / aq=1:1.00
Default : Yes
Forced : No
Color range : Limited
Color primaries : BT.709
Transfer characteristics : BT.709
Matrix coefficients : BT.709

Audio #1
ID : 2
Format : AC-3
Format/Info : Audio Coding 3
Commercial name : Dolby Digital
Codec ID : A_AC3
Duration : 1 h 39 min
Bit rate mode : Constant
Bit rate : 640 kb/s
Channel(s) : 6 channels
Channel layout : L R C LFE Ls Rs
Sampling rate : 48.0 kHz
Frame rate : 31.250 FPS (1536 SPF)
Bit depth : 16 bits
Compression mode : Lossy
Stream size : 455 MiB (22%)
Language : Thai
Service kind : Complete Main
Default : Yes
Forced : No

Audio #2
ID : 3
Format : AC-3
Format/Info : Audio Coding 3
Commercial name : Dolby Digital
Codec ID : A_AC3
Duration : 1 h 39 min
Bit rate mode : Constant
Bit rate : 384 kb/s
Channel(s) : 6 channels
Channel layout : L R C LFE Ls Rs
Sampling rate : 48.0 kHz
Frame rate : 31.250 FPS (1536 SPF)
Bit depth : 16 bits
Compression mode : Lossy
Stream size : 273 MiB (13%)
Language : English
Service kind : Complete Main
Default : No
Forced : No

Text #1
ID : 4
Format : VobSub
Muxing mode : zlib
Codec ID : S_VOBSUB
Codec ID/Info : Picture based subtitle format used on DVDs
Language : Thai
Default : Yes
Forced : No

Text #2
ID : 5
Format : VobSub
Muxing mode : zlib
Codec ID : S_VOBSUB
Codec ID/Info : Picture based subtitle format used on DVDs
Language : English
Default : No
Forced : No

DOWNLOAD


PART01 |||| PART02 |||| PART03

PART01 |||| PART02 |||| PART03

PART01 |||| PART02 |||| PART03

PART01 |||| PART02 |||| PART03


Leave A Reply

Your email address will not be published.

%d bloggers like this: