เว็บโหลดหนัง HD MINI-HD SUPER-HQ Full-HD 1080p One2up VIP Master Zoom ซูม หนังใหม่ ออนไลน์ มาสเตอร์ ไทย จีน ฝรั่ง การ์ตูน

[Mini-HD] The Host (2006) อสูรนรกกลายพันธุ์ [1080p] [พากย์ไทย 5.1 + เกาหลี 5.1] [บรรยายไทย + อังกฤษ] [เสียงไทย + ซับไทย] [ONE2UP]

0

โหลดหนัง  The Host (2006) อสูรนรกกลายพันธุ์

เรื่องย่อ The Host (2006) อสูรนรกกลายพันธุ์

หนังเปิดฉากด้วยความเงียบสงบด้วยภาพผู้คนใช้ชีวิตประจำวันอย่างสบายใจอยู่ริมแม่น้ำฮาน แต่จู่ๆ ก็มีสัตว์ประหลาดโผล่ออกมาจากแม่น้ำแล้วออกไล่จับชาวบ้านมากิน แต่แทนที่รัฐบาลจะหาทางกำจัดสัตว์ประหลาดตัวนี้ กลับยินยอมให้กองทัพจากสหรัฐอเมริกาเข้ามากักบริเวณผู้ที่สัมผัสตัวเจ้าสัตว์ตัวนี้เพราะอเมริกาต้องการได้หน้าจากการวิจัยเจ้าสัตว์ประหลาด สุดท้ายคนที่ต้องดิ้นรนต่อสู้คือประชาชนตาดำๆ ที่ไร้ทางสู้ ดังเช่นครอบครัวของพระเอกที่ตัดสินใจหนีออกจากสถานกักกันโรคเพื่อออกไปช่วยลูกสาวกันเองโดยในมือมีเพียงอาวุธจิ๊บจ้อยที่ดูแล้วไม่น่าจะสะกิดผิวของเจ้าสัตว์ประหลาดได้เลย

เรื่องราวการกำเนิดของสัตว์ประหลาดในกรุงโซลนั้น มาจากนักวิทยาศาสตร์ชาวตะวันตกซึ่งสะเพร่า สั่งให้นักวิทยาศาสตร์ชาวเกาหลีนั้น ทิ้งสารเคมีเป็นพิษลงท่อซึ่งไหลสู่แม่น้ำฮาน ก่อให้เกิดการกลายพันธุ์ของสัตว์ที่อาศัยอยู่ในน้ำ กลายเป็นเจ้าสัตว์ประหลาดตัวมหึมานี้ขึ้นมาได้ภายในร ะยะเวลาเพียงไม่กี่ปี ผู้คนพากันแตกตื่น เมื่อเจ้าสัตว์ประหลาดตัวนี้โผล่ขึ้นมาจากแม่น้ำฮาน และจับมนุษย์ไปเป็นว่าเล่น กัง-ดู ชายผู้อยู่ในที่เกิดเหตุคว้ามือลูกสาวสุดที่รักกระโจ นหนีตายจากเจ้าสัตว์ประหลาด แต่เกิดสะดุดล้มลง และเกิดการจับสลับผิดตัว จึงทำให้ลูกสาวของเขาถูกสัตว์ประหลาดจับตัวไปในที่สุ ด ในส่วนของทางการทหารนั้น ได้มีข่าวลือว่าเชื้อไวรัสได้แพร่ระบาดไปทั่วจากสัตว ์ประหลาดตัวนี้ จึงทำให้ครอบครัวของ กัง-ดู และอีกหลายๆ คนซึ่งอยู่ในเหตุการณ์นั้น ถูกจับตัวเพื่อกักกันเชื้อไวรัส ที่ไม่มีอยู่จริง พ่อของกัง-ดู ได้ทราบว่าลูกสาวเขายังไม่ตาย จึงได้หลบหนีจากสถานที่กักกันเชื้อไวรัส เพื่อตามไปช่วยลูกสาวให้พ้นจากสัตว์ประหลาดนี้!!

Complete name : [MINI-HD]_The.Host.2006.1080p.AC3.x264.x264.One2loadup.com.mkv
Format : Matroska
Format version : Version 4 / Version 2
File size : 2.42 GiB
Duration : 1 h 59 min
Overall bit rate : 2 885 kb/s
Movie name : [MINI-HD]_The.Host.2006.1080p.AC3.x264.x264.One2loadup.com
Encoded date : UTC 2014-08-22 04:33:13
Writing application : mkvmerge v7.0.0 (‘Where We Going’) 32bit built on Jun 9 2014 15:08:34
Writing library : libebml v1.3.0 + libmatroska v1.4.1

Video
ID : 1
Format : AVC
Format/Info : Advanced Video Codec
Format profile : [email protected]
Format settings, CABAC : Yes
Format settings, RefFrames : 4 frames
Codec ID : V_MPEG4/ISO/AVC
Duration : 1 h 59 min
Bit rate : 2 048 kb/s
Width : 1 920 pixels
Height : 1 040 pixels
Display aspect ratio : 1.85:1
Frame rate mode : Constant
Frame rate : 23.976 FPS
Color space : YUV
Chroma subsampling : 4:2:0
Bit depth : 8 bits
Scan type : Progressive
Bits/(Pixel*Frame) : 0.043
Stream size : 1.72 GiB (71%)
Title : [MINI-HD]_The.Host.2006.1080p.AC3.x264.x264.One2loadup.com
Writing library : x264 core 130 r2273 b3065e6
Encoding settings : cabac=1 / ref=1 / deblock=1:0:0 / analyse=0x3:0x113 / me=hex / subme=2 / psy=1 / psy_rd=1.00:0.00 / mixed_ref=0 / me_range=16 / chroma_me=1 / trellis=0 / 8x8dct=1 / cqm=0 / deadzone=21,11 / fast_pskip=1 / chroma_qp_offset=0 / threads=3 / lookahead_threads=1 / sliced_threads=0 / nr=0 / decimate=1 / interlaced=0 / bluray_compat=0 / constrained_intra=0 / bframes=3 / b_pyramid=2 / b_adapt=1 / b_bias=0 / direct=1 / weightb=1 / open_gop=0 / weightp=1 / keyint=240 / keyint_min=24 / scenecut=40 / intra_refresh=0 / rc_lookahead=10 / rc=2pass / mbtree=1 / bitrate=2048 / ratetol=1.0 / qcomp=0.60 / qpmin=0 / qpmax=69 / qpstep=4 / cplxblur=20.0 / qblur=0.5 / vbv_maxrate=62500 / vbv_bufsize=78125 / nal_hrd=none / ip_ratio=1.40 / aq=1:1.00
Language : Korean
Default : Yes
Forced : No
Color range : Limited
Color primaries : BT.709
Transfer characteristics : BT.709
Matrix coefficients : BT.709

Audio #1
ID : 2
Format : AC-3
Format/Info : Audio Coding 3
Format settings, Endianness : Big
Codec ID : A_AC3
Duration : 1 h 59 min
Bit rate mode : Constant
Bit rate : 448 kb/s
Channel(s) : 6 channels
Channel positions : Front: L C R, Side: L R, LFE
Sampling rate : 48.0 kHz
Frame rate : 31.250 FPS (1536 SPF)
Bit depth : 16 bits
Compression mode : Lossy
Stream size : 384 MiB (16%)
Title : DVDMASTER
Language : Thai
Service kind : Complete Main
Default : Yes
Forced : No

Audio #2
ID : 3
Format : AC-3
Format/Info : Audio Coding 3
Format settings, Endianness : Big
Codec ID : A_AC3
Duration : 1 h 59 min
Bit rate mode : Constant
Bit rate : 384 kb/s
Channel(s) : 6 channels
Channel positions : Front: L C R, Side: L R, LFE
Sampling rate : 48.0 kHz
Frame rate : 31.250 FPS (1536 SPF)
Bit depth : 16 bits
Compression mode : Lossy
Stream size : 329 MiB (13%)
Title : DVD
Language : Korean
Service kind : Complete Main
Default : No
Forced : No

Text #1
ID : 4
Format : UTF-8
Codec ID : S_TEXT/UTF8
Codec ID/Info : UTF-8 Plain Text
Duration : 16 s 731 ms
Bit rate : 390 b/s
Count of elements : 18
Stream size : 817 Bytes (0%)
Title : www.siamgreenfile.com
Language : Thai
Default : Yes
Forced : Yes

Text #2
ID : 5
Format : VobSub
Codec ID : S_VOBSUB
Codec ID/Info : Picture based subtitle format used on DVDs
Duration : 1 h 53 min
Bit rate : 1 699 b/s
Count of elements : 1063
Stream size : 1.38 MiB (0%)
Title : DVD OK UNDER SIR
Language : Thai
Default : No
Forced : No

Text #3
ID : 6
Format : VobSub
Codec ID : S_VOBSUB
Codec ID/Info : Picture based subtitle format used on DVDs
Duration : 1 h 53 min
Bit rate : 1 699 b/s
Count of elements : 1063
Stream size : 1.38 MiB (0%)
Title : DVDMASTER
Language : Thai
Default : No
Forced : No

Text #4
ID : 7
Format : UTF-8
Codec ID : S_TEXT/UTF8
Codec ID/Info : UTF-8 Plain Text
Duration : 1 h 53 min
Bit rate : 34 b/s
Count of elements : 939
Stream size : 29.1 KiB (0%)
Title : SRT
Language : English
Default : No
Forced : No

Menu
00:00:00.000 : en:00:00:00.000
00:05:57.941 : en:00:05:57.857
00:14:55.646 : en:00:14:55.645
00:24:30.305 : en:00:24:30.302
00:33:08.365 : en:00:33:08.236
00:42:25.255 : en:00:42:25.251
00:51:00.688 : en:00:51:00.683
00:54:23.474 : en:00:54:23.469
01:00:38.307 : en:01:00:38.301
01:05:13.499 : en:01:05:13.493
01:16:44.441 : en:01:16:44.433
01:25:36.431 : en:01:25:36.423
01:29:17.778 : en:01:29:17.727
01:33:42.209 : en:01:33:42.075
01:39:18.837 : en:01:39:18.828
01:44:43.329 : en:01:44:43.319

 

 

 


PART01 |||| PART02 |||| PART03

PART01 |||| PART02 |||| PART03

PART01 |||| PART02 |||| PART03

PART01 |||| PART02 |||| PART03


Leave A Reply

Your email address will not be published.

%d bloggers like this: