โหลดหนัง HD MINI-HD SUPER-HQ Full-HD 1080p VIP Master Zoom ซูม หนังใหม่ ออนไลน์ มาสเตอร์ ไทย จีน ฝรั่ง การ์ตูน

[MINI-HD] The First Purge (2018) ปฐมบทคืนล้างบาป [1080p] [พากย์ไทย 5.1 + เสียงอังกฤษ DTS] [บรรยายไทย + อังกฤษ] [เสียงไทย + ซับไทย]

0

โหลดหนัง  The First Purge (2018) ปฐมบทคืนล้างบาป

เรื่องย่อ The First Purge (2018) ปฐมบทคืนล้างบาป

เบื้องหลังของทุกขนบธรรมเนียม ย่อมแฝงไปด้วยการปฏิวัติ ปีนี้ เราจะได้เป็นพยานเฝ้าดูช่วงเวลา 12 ชั่วโมง ที่ไร้กฎหมายที่เกิดขึ้นเป็นประจำทุกปีขอต้อนรับสู่การปฏิวัติที่เริ่มต้น ด้วยการทดลองแบบง่ายๆ ใน The First Purge เพื่อลดอัตราการก่ออาชญากรรมตลอดทั้งปีให้เหลือต่ำกว่าหนึ่งเปอร์เซ็นต์กลุ่มบรรพบุรุษผู้ก่อตั้งอเมริกายุคใหม่ (NFFA) ได้ทดสอบทฤษฏีเชิงสังคมวิทยาที่ให้ผู้คนได้ปลดปล่อยความก้าวร้าวออกมาเป็นเวลาหนึ่งคืนในชุมชนที่ห่างไกล แต่เมื่อความรุนแรงของผู้กดขี่ปะทะกับความกราดเกรี้ย วของคนที่ตกเป็นเบี้ยล่าง แนวคิดนี้จึงแพร่ระบาดจากเมืองบ้านนอกที่ถูกใช้เป็นหนูทดลอง และแพร่กระจายไปทั่วประเทศย้อนสู่จุดกำเนิดของคืนล้างบาป เรื่องราวของการบุกเบิก 12 ชั่วโมงอันตรายที่อาชญากรรมทุกประเภทรวมถึงฆาตกรรมกลายเป็นสิ่งถูกกฎหมาย

Complete name : [MINI-HD]_The.First.Purge.2018.1080p.DTS.x264.One2loadup.com.mkv
Format : Matroska
Format version : Version 4 / Version 2
File size : 3.30 GiB
Duration : 1 h 37 min
Overall bit rate : 4 843 kb/s
Encoded date : UTC 2018-11-06 00:32:23 / UTC 2018-11-05T16:14:48Z
Writing application : mkvmerge v8.3.0 (‘Over the Horizon’) 64bit
Writing library : libebml v1.3.1 + libmatroska v1.4.2 / Lavf55.12.0

Video
ID : 1
Format : AVC
Format/Info : Advanced Video Codec
Format profile : [email protected]
Format settings : CABAC / 4 Ref Frames
Format settings, CABAC : Yes
Format settings, ReFrames : 4 frames
Codec ID : V_MPEG4/ISO/AVC
Bit rate : 2 598 kb/s
Width : 1 920 pixels
Height : 804 pixels
Display aspect ratio : 2.40:1
Frame rate mode : Variable
Color space : YUV
Chroma subsampling : 4:2:0
Bit depth : 8 bits
Scan type : Progressive
Writing library : x264 core 142 r2479 dd79a61
Encoding settings : cabac=1 / ref=1 / deblock=1:0:0 / analyse=0x1:0x111 / me=hex / subme=2 / psy=1 / psy_rd=1.00:0.00 / mixed_ref=0 / me_range=16 / chroma_me=1 / trellis=0 / 8x8dct=0 / cqm=0 / deadzone=21,11 / fast_pskip=1 / chroma_qp_offset=0 / threads=6 / lookahead_threads=2 / sliced_threads=0 / nr=0 / decimate=1 / interlaced=0 / bluray_compat=0 / constrained_intra=0 / bframes=3 / b_pyramid=2 / b_adapt=1 / b_bias=0 / direct=1 / weightb=1 / open_gop=0 / weightp=1 / keyint=240 / keyint_min=24 / scenecut=40 / intra_refresh=0 / rc_lookahead=10 / rc=crf / mbtree=1 / crf=22.0 / qcomp=0.60 / qpmin=0 / qpmax=69 / qpstep=4 / vbv_maxrate=20000 / vbv_bufsize=25000 / crf_max=0.0 / nal_hrd=none / filler=0 / ip_ratio=1.40 / aq=1:1.00
Language : Thai
Default : Yes
Forced : Yes
Color range : Limited
Color primaries : BT.709
Transfer characteristics : BT.709
Matrix coefficients : BT.709
Statistics Tags Issue : mkvmerge v8.3.0 (‘Over the Horizon’) 64bit 2018-11-06 00:32:23 / mkvmerge v8.3.0 (‘Over the Horizon’) 64bit 2018-11-06 00:32:23 / UTC 2018-11-05T16:14:48Z
FromStats_BitRate : 2658196
FromStats_Duration : 01:37:25.316000000
FromStats_FrameCount : 140147
FromStats_StreamSize : 1942250153

Audio #1
ID : 2
Format : DTS
Format/Info : Digital Theater Systems
Codec ID : A_DTS
Duration : 1 h 37 min
Bit rate mode : Constant
Bit rate : 1 509 kb/s
Channel(s) : 6 channels
Channel positions : Front: L C R, Side: L R, LFE
Sampling rate : 48.0 kHz
Frame rate : 93.750 FPS (512 SPF)
Bit depth : 24 bits
Compression mode : Lossy
Stream size : 1.03 GiB (31%)
Title : Surround
Language : English
Default : No
Forced : No
Statistics Tags Issue : mkvmerge v8.3.0 (‘Over the Horizon’) 64bit 2018-11-06 00:32:23 / mkvmerge v8.3.0 (‘Over the Horizon’) 64bit 2018-11-06 00:32:23 / UTC 2018-11-05T16:14:48Z
FromStats_BitRate : 1508999
FromStats_Duration : 01:37:25.334000000
FromStats_FrameCount : 548000
FromStats_StreamSize : 1102576000

Audio #2
ID : 3
Format : AC-3
Format/Info : Audio Coding 3
Codec ID : A_AC3
Duration : 1 h 37 min
Bit rate mode : Constant
Bit rate : 640 kb/s
Channel(s) : 6 channels
Channel positions : Front: L C R, Side: L R, LFE
Sampling rate : 48.0 kHz
Frame rate : 31.250 FPS (1536 SPF)
Bit depth : 16 bits
Compression mode : Lossy
Delay relative to video : -5 ms
Stream size : 446 MiB (13%)
Title : Surround
Language : Thai
Service kind : Complete Main
Default : Yes
Forced : Yes
Statistics Tags Issue : mkvmerge v8.3.0 (‘Over the Horizon’) 64bit 2018-11-06 00:32:23 / mkvmerge v8.3.0 (‘Over the Horizon’) 64bit 2018-11-06 00:32:23 / UTC 2018-11-05T16:14:48Z
FromStats_BitRate : 640000
FromStats_Duration : 01:37:25.312000000
FromStats_FrameCount : 182666
FromStats_StreamSize : 467624960

Text #1
ID : 4
Format : PGS
Muxing mode : zlib
Codec ID : S_HDMV/PGS
Codec ID/Info : Picture based subtitle format used on BDs/HD-DVDs
Language : English
Default : No
Forced : No
Statistics Tags Issue : mkvmerge v8.3.0 (‘Over the Horizon’) 64bit 2018-11-06 00:32:23 / mkvmerge v8.3.0 (‘Over the Horizon’) 64bit 2018-11-06 00:32:23 / UTC 2018-11-05T16:14:48Z
FromStats_BitRate : 14588
FromStats_Duration : 01:33:00.909000000
FromStats_FrameCount : 2994
FromStats_StreamSize : 10177024

Text #2
ID : 5
Format : PGS
Muxing mode : zlib
Codec ID : S_HDMV/PGS
Codec ID/Info : Picture based subtitle format used on BDs/HD-DVDs
Language : Thai
Default : No
Forced : No
Statistics Tags Issue : mkvmerge v8.3.0 (‘Over the Horizon’) 64bit 2018-11-06 00:32:23 / mkvmerge v8.3.0 (‘Over the Horizon’) 64bit 2018-11-06 00:32:23 / UTC 2018-11-05T16:14:48Z
FromStats_BitRate : 8533
FromStats_Duration : 01:36:27.115000000
FromStats_FrameCount : 2430
FromStats_StreamSize : 6172717

Text #3
ID : 6
Format : VobSub
Muxing mode : zlib
Codec ID : S_VOBSUB
Codec ID/Info : Picture based subtitle format used on DVDs
Language : English
Default : No
Forced : No
Statistics Tags Issue : mkvmerge v8.3.0 (‘Over the Horizon’) 64bit 2018-11-06 00:32:23 / mkvmerge v8.3.0 (‘Over the Horizon’) 64bit 2018-11-06 00:32:23 / UTC 2018-11-05T16:14:48Z
FromStats_BitRate : 7126
FromStats_Duration : 01:33:00.902000000
FromStats_FrameCount : 1496
FromStats_StreamSize : 4971776

Text #4
ID : 7
Format : VobSub
Muxing mode : zlib
Codec ID : S_VOBSUB
Codec ID/Info : Picture based subtitle format used on DVDs
Language : Thai
Default : Yes
Forced : Yes
Statistics Tags Issue : mkvmerge v8.3.0 (‘Over the Horizon’) 64bit 2018-11-06 00:32:23 / mkvmerge v8.3.0 (‘Over the Horizon’) 64bit 2018-11-06 00:32:23 / UTC 2018-11-05T16:14:48Z
FromStats_BitRate : 4208
FromStats_Duration : 01:36:27.104000000
FromStats_FrameCount : 1215
FromStats_StreamSize : 3044178

Menu
00:00:00.000 : :Chapter 1
00:06:25.754 : :Chapter 2
00:11:59.462 : :Chapter 3
00:16:18.888 : :Chapter 4
00:21:17.353 : :Chapter 5
00:25:55.923 : :Chapter 6
00:30:54.263 : :Chapter 7
00:35:31.331 : :Chapter 8
00:38:41.229 : :Chapter 9
00:43:02.573 : :Chapter 10
00:48:34.530 : :Chapter 11
00:53:34.330 : :Chapter 12
00:55:59.683 : :Chapter 13
00:59:13.168 : :Chapter 14
01:05:25.081 : :Chapter 15
01:09:31.911 : :Chapter 16
01:13:23.851 : :Chapter 17
01:19:47.651 : :Chapter 18
01:24:50.162 : :Chapter 19
01:29:55.050 : :Chapter 20

DOWNLOAD


PART01 |||| PART02 |||| PART03 |||| PART04

PART01 |||| PART02 |||| PART03 |||| PART04

PART01 |||| PART02 |||| PART03 |||| PART04

PART01 |||| PART02 |||| PART03 |||| PART04


Leave A Reply

Your email address will not be published.

%d bloggers like this: