[MINI-HD] Tai Chi Zero (2012) ไทเก๊ก หมัดเล็กเหล็กตัน ภาค 1 [1080p] [พากย์ไทย 5.1 + จีน TrueHD 5.1] [ไม่มีบรรยาย] [เสียงไทย] [OPENLOAD]

2

Tai Chi Zero (2012)

โหลดหนัง  Tai Chi Zero (2012) ไทเก๊ก หมัดเล็กเหล็กตัน ภาค 1

Tai ji 1: Cong 0 kai shi (2012) 1h 38min | Action, Adventure, Drama | 27 September 2012 (China) Summary: Yang travels to Chen Village to learn a powerful form of Tai Chi. Though villagers are forbidden from teaching outsiders, Yang becomes their best hope for survival when a man arrives with a plan to build a railroad through the village.
Countries: ChinaLanguages: Mandarin, English

เรื่องย่อ Tai Chi Zero (2012) ไทเก๊ก หมัดเล็กเหล็กตัน ภาค 1

Tai Chi 0 และหนังแนวแอ็คชั่นกังฟูผจญภัย 2 ภาคต่อเนื่อง เรื่องราวเกี่ยวกับชายหนุ่มที่ต้องการจะเป็นยอดฝีมือ ไทเก็ก โดยการเดินทางมาฝึกวิชาที่หมู่บ้านเล็กๆแห่งหนึ่ง แต่หารู้ไม่ว่าหมู่บ้านนี้ถูกปกครองด้วยเหล่าทหารสุด โหดที่กดขี่ชาวบ้านมา นานนับปี โดยเหล่าชาวบ้านรู้ว่าชายหนุ่มผู้นี้คือความหวังเดีย วของพวกเขา พวกเขาจึงช่วยให้ชายหนุ่มนั้นสำเร็จวิชาไทเก็ก เพื่อนำเอาไปปราบเหล่าทหารชั่ว จุดเด่นของหนักนอกจากจะได้ดาราหนุ่มหล่อสาวสวยรุ่นให ม่ของจีนและฮ่องกงมา ร่วมงาน ยังได้นำเรื่องราวกังฟูบวกเข้ากับงานกำกับศิลป์ยุคสต รีมพั๊งค์เข้าด้วยกัน ได้อย่างเท่อีกด้วย

Complete name : [MINI-HD]_Tai.Chi.O.2012.1080p.BrRip.AC3.x264.One2loadup.com.mkv
Format : Matroska
Format version : Version 4
File size : 4.55 GiB
Duration : 1 h 38 min
Overall bit rate mode : Variable
Overall bit rate : 6 640 kb/s
Movie name : [MINI-HD]_Tai.Chi.O.2012.1080p.BrRip.AC3.x264.One2loadup.com
Encoded date : UTC 2019-05-08 08:54:33
Writing application : mkvmerge v31.0.0 (‘Dolores In A Shoestand’) 64-bit
Writing library : libebml v1.3.6 + libmatroska v1.4.9
Encoding Gui : Hybrid 2019.03.13.1

Video
ID : 1
Format : AVC
Format/Info : Advanced Video Codec
Format profile : [email protected]
Format settings : CABAC / 4 Ref Frames
Format settings, CABAC : Yes
Format settings, ReFrames : 4 frames
Codec ID : V_MPEG4/ISO/AVC
Duration : 1 h 38 min
Bit rate : 1 500 kb/s
Width : 1 920 pixels
Height : 1 080 pixels
Display aspect ratio : 16:9
Frame rate mode : Constant
Frame rate : 23.976 (24000/1001) FPS
Color space : YUV
Chroma subsampling : 4:2:0
Bit depth : 8 bits
Scan type : Progressive
Bits/(Pixel*Frame) : 0.030
Stream size : 1.03 GiB (23%)
Title : [MINI-HD]_Tai.Chi.O.2012.1080p.BrRip.AC3.x264.One2loadup.com
Writing library : x264 core 157 r2969 d4099dd
Encoding settings : cabac=1 / ref=3 / deblock=1:0:0 / analyse=0x3:0x111 / me=hex / subme=5 / psy=1 / psy_rd=1.00:0.00 / mixed_ref=1 / me_range=16 / chroma_me=1 / trellis=0 / 8x8dct=1 / cqm=0 / deadzone=21,11 / fast_pskip=0 / chroma_qp_offset=0 / threads=24 / lookahead_threads=6 / sliced_threads=0 / nr=0 / decimate=1 / interlaced=0 / bluray_compat=0 / constrained_intra=0 / bframes=3 / b_pyramid=2 / b_adapt=0 / b_bias=0 / direct=3 / weightb=1 / open_gop=0 / weightp=1 / keyint=250 / keyint_min=23 / scenecut=40 / intra_refresh=0 / rc_lookahead=40 / rc=2pass / mbtree=1 / bitrate=1500 / ratetol=1.0 / qcomp=0.50 / qpmin=0 / qpmax=69 / qpstep=4 / cplxblur=20.0 / qblur=0.5 / vbv_maxrate=62500 / vbv_bufsize=78125 / nal_hrd=none / filler=0 / ip_ratio=1.40 / aq=1:0.00
Default : Yes
Forced : Yes
Color range : Limited
Matrix coefficients : BT.709

Audio #1
ID : 2
Format : AC-3
Format/Info : Audio Coding 3
Commercial name : Dolby Digital
Codec ID : A_AC3
Duration : 1 h 38 min
Bit rate mode : Constant
Bit rate : 384 kb/s
Channel(s) : 6 channels
Channel layout : L R C LFE Ls Rs
Sampling rate : 48.0 kHz
Frame rate : 31.250 FPS (1536 SPF)
Bit depth : 16 bits
Compression mode : Lossy
Stream size : 269 MiB (6%)
Language : Thai
Service kind : Complete Main
Default : Yes
Forced : No

Audio #2
ID : 3
Format : MLP FBA
Format/Info : Meridian Lossless Packing FBA
Commercial name : Dolby TrueHD
Codec ID : A_TRUEHD
Duration : 1 h 38 min
Bit rate mode : Variable
Bit rate : 4 690 kb/s
Maximum bit rate : 7 482 kb/s
Channel(s) : 6 channels
Channel layout : L R C LFE Ls Rs
Sampling rate : 96.0 kHz
Frame rate : 1 200.000 FPS (80 SPF)
Compression mode : Lossless
Stream size : 3.21 GiB (71%)
Default : No
Forced : No

DOWNLOAD


PART01 |||| PART02 |||| PART03 |||| PART04 |||| PART05

PART01 |||| PART02 |||| PART03 |||| PART04 |||| PART05

PART01 |||| PART02 |||| PART03 |||| PART04 |||| PART05

PART01 |||| PART02 |||| PART03 |||| PART04 |||| PART05


2 Comments
  1. Muckho
    Muckho says

    ขอบใจมากครับ รอมาหลายวันคิดว่าลืมแล้ว ฝากช่วยหาภาค2 ด้วนะครับ

    1. Admin
      Admin says

      ไม่ลืมฮ๊ะมันอยู่ตามคิวอะนะ เลยลงตามคิว

Leave A Reply

Your email address will not be published.

%d bloggers like this: