[MINI-HD] Tai Chi Hero (2012) ไทเก๊ก หมัดเล็กเหล็กตัน ภาค 2 [720p] [พากย์ไทย 5.1/DTS + เสียงจีน 5.1] [บรรยายไทย + อังกฤษ] [เสียงไทย + ซับไทย] [OPENLOAD]

4

โหลดหนัง  Tai Chi Hero (2012) ไทเก๊ก หมัดเล็กเหล็กตัน ภาค 2

Tai Chi Hero (2012) 1h 40min | Action, Adventure | 25 October 2012 (China) Summary: About the early years of Yang Luchan, a Tai chi master. The man who founded Tai Chi in the 19th century and what has now become the most popular Tai Chi style in the world. The second ... See full summary »
Countries: ChinaLanguages: Mandarin

เรื่องย่อ Tai Chi Hero (2012) ไทเก๊ก หมัดเล็กเหล็กตัน ภาค 2

หลังจากที่สร้างความสนุก รวมทั้งความแปลกใหม่ให้กับหนังจีนแอ็คชั่นแนวใหม่อย่าง Tai Chi O (ไทเก๊ก หมัดเล็กเหล็กตัน) ไปเรียบร้อยแล้ว ความสนุกไม่ได้จบแต่เพียงเท่านี้ เพราะเรื่องราวและ ตัวละครหลายตัวยังไม่ได้ปรากฏสานต่อความสนุกอีกครั้งด้วย Tai Chi Hero (ไทเก๊ก หมัดเล็กเหล็กตัน 2) ที่ยังคงรวมพลนักแสดงชุดเดิมไว้อย่างคับคั่ง ผนึกกำลังด้วยคิวบู๊มากกว่าเดิมโดย หงจินเป่า ด้วย

Complete name : [MINI-HD]_Tai.Chi.Hero.2.2012.720p.BrRip.AC3.x264.One2loadup.com.mkv
Format : Matroska
Format version : Version 2
File size : 3.68 GiB
Duration : 1 h 42 min
Overall bit rate : 5 135 kb/s
Movie name : [MINI-HD]_Tai.Chi.Hero.2.2012.720p.BrRip.AC3.x264.One2loadup.com
Encoded date : UTC 2013-02-19 16:04:42
Writing application : mkvmerge v5.8.0 (‘No Sleep / Pillow’) built on Sep 2 2012 15:37:04
Writing library : libebml v1.2.3 + libmatroska v1.3.0

Video
ID : 1
Format : AVC
Format/Info : Advanced Video Codec
Format profile : [email protected]
Format settings : CABAC / 4 Ref Frames
Format settings, CABAC : Yes
Format settings, ReFrames : 4 frames
Codec ID : V_MPEG4/ISO/AVC
Duration : 1 h 42 min
Bit rate : 2 750 kb/s
Width : 1 280 pixels
Height : 546 pixels
Display aspect ratio : 2.35:1
Frame rate mode : Constant
Frame rate : 23.976 FPS
Color space : YUV
Chroma subsampling : 4:2:0
Bit depth : 8 bits
Scan type : Progressive
Bits/(Pixel*Frame) : 0.164
Stream size : 1.93 GiB (52%)
Title : [MINI-HD]_Tai.Chi.Hero.2.2012.720p.BrRip.AC3.x264.One2loadup.com
Writing library : x264 core 125 r2200bm 999b753
Encoding settings : cabac=1 / ref=3 / deblock=1:-1:-1 / analyse=0x3:0x113 / me=hex / subme=7 / psy=1 / psy_rd=1.00:0.15 / mixed_ref=1 / me_range=16 / chroma_me=1 / trellis=1 / 8x8dct=1 / cqm=0 / deadzone=21,11 / fast_pskip=1 / chroma_qp_offset=-3 / threads=3 / lookahead_threads=1 / sliced_threads=0 / nr=0 / decimate=1 / interlaced=0 / bluray_compat=0 / constrained_intra=0 / bframes=3 / b_pyramid=2 / b_adapt=1 / b_bias=0 / direct=1 / weightb=1 / open_gop=0 / weightp=2 / keyint=250 / keyint_min=23 / scenecut=40 / intra_refresh=0 / rc_lookahead=40 / rc=abr / mbtree=1 / bitrate=2750 / ratetol=1.0 / qcomp=0.60 / qpmin=0 / qpmax=69 / qpstep=4 / ip_ratio=1.40 / aq=1:1.00
Language : Chinese
Default : Yes
Forced : No

Audio #1
ID : 2
Format : AC-3
Format/Info : Audio Coding 3
Commercial name : Dolby Digital
Codec ID : A_AC3
Duration : 1 h 42 min
Bit rate mode : Constant
Bit rate : 448 kb/s
Channel(s) : 6 channels
Channel layout : L R C LFE Ls Rs
Sampling rate : 48.0 kHz
Frame rate : 31.250 FPS (1536 SPF)
Bit depth : 16 bits
Compression mode : Lossy
Stream size : 329 MiB (9%)
Language : Chinese
Service kind : Complete Main
Default : No
Forced : No

Audio #2
ID : 3
Format : AC-3
Format/Info : Audio Coding 3
Commercial name : Dolby Digital
Codec ID : A_AC3
Duration : 1 h 42 min
Bit rate mode : Constant
Bit rate : 384 kb/s
Channel(s) : 6 channels
Channel layout : L R C LFE Ls Rs
Sampling rate : 48.0 kHz
Frame rate : 31.250 FPS (1536 SPF)
Bit depth : 16 bits
Compression mode : Lossy
Stream size : 282 MiB (7%)
Title : [THAI AC3 FROM DVD MASTER]
Language : Thai
Service kind : Complete Main
Default : No
Forced : No

Audio #3
ID : 4
Format : DTS
Format/Info : Digital Theater Systems
Codec ID : A_DTS
Duration : 1 h 42 min
Bit rate mode : Constant
Bit rate : 1 510 kb/s
Channel(s) : 6 channels
Channel layout : C L R Ls Rs LFE
Sampling rate : 48.0 kHz
Frame rate : 93.750 FPS (512 SPF)
Bit depth : 24 bits
Compression mode : Lossy
Stream size : 1.08 GiB (29%)
Title : THAI DTS
Language : Thai
Default : Yes
Forced : No

Text #1
ID : 5
Format : VobSub
Codec ID : S_VOBSUB
Codec ID/Info : Picture based subtitle format used on DVDs
Title : [SUB THAI 480P FROM DVD MASTER] Freesia UPC
Language : Thai
Default : Yes
Forced : No

Text #2
ID : 6
Format : VobSub
Codec ID : S_VOBSUB
Codec ID/Info : Picture based subtitle format used on DVDs
Title : [SUB THAI 480P FROM DVD MASTER] Angsana UPC
Language : Thai
Default : No
Forced : No

Text #3
ID : 7
Format : PGS
Codec ID : S_HDMV/PGS
Codec ID/Info : Picture based subtitle format used on BDs/HD-DVDs
Title : THAI PGS TH Sarabun
Language : Thai
Default : No
Forced : No

Text #4
ID : 8
Format : PGS
Codec ID : S_HDMV/PGS
Codec ID/Info : Picture based subtitle format used on BDs/HD-DVDs
Title : THAI PGS Angsana UPC
Language : Thai
Default : No
Forced : No

Text #5
ID : 9
Format : PGS
Codec ID : S_HDMV/PGS
Codec ID/Info : Picture based subtitle format used on BDs/HD-DVDs
Title : ENG PGS
Language : English
Default : No
Forced : No

Text #6
ID : 10
Format : UTF-8
Codec ID : S_TEXT/UTF8
Codec ID/Info : UTF-8 Plain Text
Title : ENG SRT
Language : English
Default : No
Forced : No

DOWNLOAD


PART01 |||| PART02 |||| PART03 |||| PART04

PART01 |||| PART02 |||| PART03 |||| PART04

PART01 |||| PART02 |||| PART03 |||| PART04

PART01 |||| PART02 |||| PART03 |||| PART04


4 Comments
  1. Neung Chaiwan
    Neung Chaiwan says

    มีFile 1080 p ไหมครับ ถ้ามีรบกวนอัพ1080 p ด้วยครับ

    1. Admin
      Admin says

      ไม่รู้อะฮ๊ะ ตอนหาไฟล์เราหาเจอแค่ 720 ไม่เห็น 1080p ถ้าหาเจอก็จะลงให้ละกันฮ๊ะ

      1. Admin
        Admin says

        แต่เท่าที่หาไม่มีฮ๊ะ มีแค่ 720p เด้อ

  2. Neung Chaiwan
    Neung Chaiwan says

    ขอบคุณมากๆครับผม

Leave A Reply

Your email address will not be published.

%d bloggers like this: