เว็บโหลดหนัง HD MINI-HD SUPER-HQ Full-HD 1080p One2up VIP Master Zoom ซูม หนังใหม่ ออนไลน์ มาสเตอร์ ไทย จีน ฝรั่ง การ์ตูน

[MINI-HD] Spy Kids: All the Time in the World (2011) ซุปเปอร์ทีมระเบิดพลังทะลุจอ ภาค 4 [720p] [พากย์ไทย 5.1 + อังกฤษ 5.1] [บรรยายไทย] [เสียงไทย + ซับไทย] [ONE2UP]

0

โหลดหนัง  Spy Kids: All the Time in the World (2011) ซุปเปอร์ทีมระเบิดพลังทะลุจอ ภาค 4

เรื่องย่อ Spy Kids: All the Time in the World (2011) ซุปเปอร์ทีมระเบิดพลังทะลุจอ ภาค 4

หากดูเพียงผิวเผิน มาริสซา คอร์เตซ วิลสัน (เจสสิก้า อัลบา) มีพร้อมทุกอย่าง…เธอได้แต่งงานกับนักข่าวโทรทัศน์ผู้ ตามล่าสายลับคนดัง มีลูกน้อยที่เพิ่งเกิด และมีลูกเลี้ยงฝาแฝดที่แสนฉลาด แต่ในความเป็นจริงแล้ว การทำหน้าที่เป็นแม่ให้กับรีเบ็คก้า (โรวัน บลองชาร์ด) และเซซิล (เมสัน คุ้ก) ผู้เกลียดเธอเข้าไส้ เป็นความท้าทายที่หินที่สุดของเธอ นอกจากนั้น วิลเบอร์ (โจเอล แม็คเฮล) สามีของเธอ ก็ไม่รู้จักสายลับด้วยซ้ำ ต่อให้เขาใช้ชีวิตอยู่กับสายลับก็เถอะ ซึ่งก็ใช่เลย เพราะมาริสซานี่แหละคือสายลับที่ถอนตัวจากวงการแล้วโ ลกของมาริสซาพลิกกลับตา รปัตรเมื่อไทม์คีพเปอร์ผู้บ้าคลั่ง (เจเรมี พิเวน) ขู่ที่จะยึดครองโลก และเธอก็ถูกเรียกกลับไปปฏิบัติการอีกครั้งโดยคำสั่งข องหัวหน้าทีม OSS ที่ซึ่งรวมสายลับระดับสุดยอดเอาไว้ด้วยกัน และเคยเป็นที่ตั้งของแผนก Spy Kids ที่ถูกยุบไปแล้วด้วย เมื่อหายนะกำลังจะมาเยือน เซซิลและรีเบ็คก้า พี่สาวของเขา ก็ต้องออกปฏิบัติการเมื่อพวกเขารู้ว่า แม่เลี้ยงที่น่าเบื่อหน่ายของพวกเขาเคยเป็นสุดยอดสาย ลับมาก่อน บัดนี้ เด็กสองคนที่เกลียดความพ่ายแพ้ที่สุดในโลกจำใจต้องรา มือจากการทะเลาะกัน และพึ่งพาเพียงสติปัญญา ด้วยความช่วยเหลือจากสปายคิดส์ที่คุ้นหน้าคุ้นตากันด ี คาร์เมน (อเล็กซา เวก้า) และจูนี คอร์เตซ (ดาริล ซาบารา) รวมถึงอุปกรณ์สุดไฮเทค พวกเขาก็อาจจะสามารถกอบกู้โลกและประสานรอยร้าวในครอบ ครัวไปพร้อมๆ กันได้ด้วยก็เป็นได้

Complete name : [MINI-HD]_Spy.Kids.4.All.the.Time.in.the.World.2011.720p.AC3.x264.One2loadup.com.mkv
Format : Matroska
Format version : Version 2
File size : 3.02 GiB
Duration : 1 h 27 min
Overall bit rate mode : Variable
Overall bit rate : 4 933 kb/s
Movie name : [MINI-HD]_Spy.Kids.4.All.the.Time.in.the.World.2011.720p.AC3.x264.One2loadup.com
Encoded date : UTC 2012-02-25 23:08:19
Writing application : mkvmerge v3.4.0 (‘Rapunzel’) built on May 15 2010 09:38:20
Writing library : libebml v0.8.0 + libmatroska v0.9.0

Video
ID : 1
Format : AVC
Format/Info : Advanced Video Codec
Format profile : [email protected]
Format settings : CABAC / 3 Ref Frames
Format settings, CABAC : Yes
Format settings, ReFrames : 3 frames
Codec ID : V_MPEG4/ISO/AVC
Duration : 1 h 27 min
Bit rate mode : Variable
Bit rate : 4 153 kb/s
Maximum bit rate : 25.0 Mb/s
Width : 1 280 pixels
Height : 720 pixels
Display aspect ratio : 16:9
Frame rate mode : Constant
Frame rate : 23.976 (24000/1001) FPS
Color space : YUV
Chroma subsampling : 4:2:0
Bit depth : 8 bits
Scan type : Progressive
Bits/(Pixel*Frame) : 0.188
Stream size : 2.49 GiB (82%)
Writing library : x264 core 114 r1924 08d04a4
Encoding settings : cabac=1 / ref=3 / deblock=0:0:0 / analyse=0x3:0x133 / me=tesa / subme=10 / psy=1 / psy_rd=1.00:0.00 / mixed_ref=1 / me_range=16 / chroma_me=1 / trellis=2 / 8x8dct=1 / cqm=0 / deadzone=21,11 / fast_pskip=1 / chroma_qp_offset=-2 / threads=9 / sliced_threads=0 / nr=0 / decimate=1 / interlaced=0 / constrained_intra=0 / bframes=3 / b_pyramid=0 / b_adapt=1 / b_bias=0 / direct=1 / weightb=1 / open_gop=0 / weightp=2 / keyint=240 / keyint_min=24 / scenecut=40 / intra_refresh=0 / rc_lookahead=40 / rc=2pass / mbtree=1 / bitrate=4153 / ratetol=1.0 / qcomp=0.60 / qpmin=0 / qpmax=69 / qpstep=4 / cplxblur=20.0 / qblur=0.5 / vbv_maxrate=25000 / vbv_bufsize=25000 / nal_hrd=vbr / ip_ratio=1.40 / aq=1:1.00
Default : No
Forced : No

Audio #1
ID : 2
Format : AC-3
Format/Info : Audio Coding 3
Codec ID : A_AC3
Duration : 1 h 27 min
Bit rate mode : Constant
Bit rate : 384 kb/s
Channel(s) : 6 channels
Channel positions : Front: L C R, Side: L R, LFE
Sampling rate : 48.0 kHz
Frame rate : 31.250 FPS (1536 SPF)
Bit depth : 16 bits
Compression mode : Lossy
Stream size : 241 MiB (8%)
Language : Thai
Service kind : Complete Main
Default : Yes
Forced : No

Audio #2
ID : 3
Format : AC-3
Format/Info : Audio Coding 3
Codec ID : A_AC3
Duration : 1 h 27 min
Bit rate mode : Constant
Bit rate : 384 kb/s
Channel(s) : 6 channels
Channel positions : Front: L C R, Side: L R, LFE
Sampling rate : 48.0 kHz
Frame rate : 31.250 FPS (1536 SPF)
Bit depth : 16 bits
Compression mode : Lossy
Stream size : 241 MiB (8%)
Language : English
Service kind : Complete Main
Default : No
Forced : No

Text #1
ID : 4
Format : VobSub
Muxing mode : zlib
Codec ID : S_VOBSUB
Codec ID/Info : Picture based subtitle format used on DVDs
Title : Thai low [dvd master]
Language : Thai
Default : No
Forced : No

Text #2
ID : 5
Format : VobSub
Muxing mode : zlib
Codec ID : S_VOBSUB
Codec ID/Info : Picture based subtitle format used on DVDs
Title : Thai [dvd master]
Language : Thai
Default : No
Forced : No

Text #3
ID : 6
Format : VobSub
Muxing mode : zlib
Codec ID : S_VOBSUB
Codec ID/Info : Picture based subtitle format used on DVDs
Title : English 480p
Language : English
Default : No
Forced : No

Text #4
ID : 7
Format : VobSub
Muxing mode : zlib
Codec ID : S_VOBSUB
Codec ID/Info : Picture based subtitle format used on DVDs
Title : English 1080p
Language : English
Default : No
Forced : No

Text #5
ID : 8
Format : UTF-8
Codec ID : S_TEXT/UTF8
Codec ID/Info : UTF-8 Plain Text
Title : English SRT
Language : English
Default : No
Forced : No

DOWNLOAD


PART01 |||| PART02 |||| PART03 |||| PART04

PART01 |||| PART02 |||| PART03 |||| PART04

PART01 |||| PART02 |||| PART03 |||| PART04

PART01 |||| PART02 |||| PART03 |||| PART04


Leave A Reply

Your email address will not be published.

%d bloggers like this: