โหลดหนัง HD MINI-HD SUPER-HQ Full-HD 1080p VIP Master Zoom ซูม หนังใหม่ ออนไลน์ มาสเตอร์ ไทย จีน ฝรั่ง การ์ตูน

[MINI-HD] Spy Kids 3: Game Over (2003) พยัคฆ์ไฮเทค ภาค 3 [720p] [พากย์ไทย 5.1 + อังกฤษ 5.1] [บรรยายไทย] [เสียงไทย + ซับไทย]

5

Spy Kids 3: Game Over (2003) พยัคฆ์ไฮเทค ภาค 3

โหลดหนัง  Spy Kids 3: Game Over (2003) พยัคฆ์ไฮเทค ภาค 3

เรื่องย่อ Spy Kids 3: Game Over (2003) พยัคฆ์ไฮเทค ภาค 3

สายลับ Spy Kids กลับมารับภารกิจครั้งยิ่งใหญ่อีกครั้ง เมื่อจอมวายร้ายอย่าง Toymaker (ซิลเวสเตอร์ สตาโลน) เริ่มต้นแผนยึดครองโลกของเขาด้วยการลักพาตัวเด็ก ๆ เข้าไปขังไว้ในโลกแห่งเกมส์ ดังนั้น คาร์เมน คอร์เทส (อเล็กซ์ เวก้า) และ จูนี่ คอร์เทส (แดรีล ซาบาร่า) จึงต้องออกโรงเข้าไปไล่ล่าเจ้าตัวร้ายเพื่อช่วยเหลือ พวกเด็ก ๆ ออกมา แต่ คาร์เมนกลับเสียท่าถูกจับเป็นตัวประกันเสียเอง จูนี่ จึงต้องผนึกกำลังกับครอบครัวของพวกเขาเพื่อไปเพื่อเต รียมพร้อมในการต่อสู้ ครั้งสุดท้ายในโลกแห่งเกมส์ 3 มิติกับคอมพิวเตอร์อัจฉริยะที่ดูเหมือนจะไม่มีจุดอ่อน

Complete name : [MINI-HD]_Spy.Kids.3.Game.Over.2003.720p.AC3.x264.One2loadup.com.mkv
Format : Matroska
Format version : Version 2
File size : 3.03 GiB
Duration : 1 h 22 min
Overall bit rate mode : Variable
Overall bit rate : 5 277 kb/s
Movie name : [MINI-HD]_Spy.Kids.3.Game.Over.2003.720p.AC3.x264.One2loadup.com
Encoded date : UTC 2012-05-17 04:17:17
Writing application : mkvmerge v3.4.0 (‘Rapunzel’) built on May 15 2010 09:38:20
Writing library : libebml v0.8.0 + libmatroska v0.9.0

Video
ID : 1
Format : AVC
Format/Info : Advanced Video Codec
Format profile : [email protected]
Format settings : CABAC / 3 Ref Frames
Format settings, CABAC : Yes
Format settings, ReFrames : 3 frames
Codec ID : V_MPEG4/ISO/AVC
Duration : 1 h 22 min
Bit rate mode : Variable
Bit rate : 4 507 kb/s
Maximum bit rate : 25.0 Mb/s
Width : 1 280 pixels
Height : 692 pixels
Display aspect ratio : 1.85:1
Frame rate mode : Constant
Frame rate : 23.976 (24000/1001) FPS
Color space : YUV
Chroma subsampling : 4:2:0
Bit depth : 8 bits
Scan type : Progressive
Bits/(Pixel*Frame) : 0.212
Stream size : 2.53 GiB (83%)
Title : [MINI-HD]_Spy.Kids.3.Game.Over.2003.720p.AC3.x264.One2loadup.com
Writing library : x264 core 114 r1924 08d04a4
Encoding settings : cabac=1 / ref=3 / deblock=0:0:0 / analyse=0x3:0x133 / me=tesa / subme=10 / psy=1 / psy_rd=1.00:0.00 / mixed_ref=1 / me_range=16 / chroma_me=1 / trellis=2 / 8x8dct=1 / cqm=0 / deadzone=21,11 / fast_pskip=1 / chroma_qp_offset=-2 / threads=9 / sliced_threads=0 / nr=0 / decimate=1 / interlaced=0 / constrained_intra=0 / bframes=3 / b_pyramid=0 / b_adapt=1 / b_bias=0 / direct=1 / weightb=1 / open_gop=0 / weightp=2 / keyint=240 / keyint_min=24 / scenecut=40 / intra_refresh=0 / rc_lookahead=40 / rc=2pass / mbtree=1 / bitrate=4507 / ratetol=1.0 / qcomp=0.60 / qpmin=0 / qpmax=69 / qpstep=4 / cplxblur=20.0 / qblur=0.5 / vbv_maxrate=25000 / vbv_bufsize=25000 / nal_hrd=vbr / ip_ratio=1.40 / aq=1:1.00
Language : English
Default : Yes
Forced : No

Audio #1
ID : 2
Format : AC-3
Format/Info : Audio Coding 3
Codec ID : A_AC3
Duration : 1 h 22 min
Bit rate mode : Constant
Bit rate : 384 kb/s
Channel(s) : 6 channels
Channel positions : Front: L C R, Side: L R, LFE
Sampling rate : 48.0 kHz
Frame rate : 31.250 FPS (1536 SPF)
Bit depth : 16 bits
Compression mode : Lossy
Stream size : 226 MiB (7%)
Title : ac3 1080p
Language : Thai
Service kind : Complete Main
Default : Yes
Forced : No

Audio #2
ID : 3
Format : AC-3
Format/Info : Audio Coding 3
Codec ID : A_AC3
Duration : 1 h 22 min
Bit rate mode : Constant
Bit rate : 384 kb/s
Channel(s) : 6 channels
Channel positions : Front: L C R, Side: L R, LFE
Sampling rate : 48.0 kHz
Frame rate : 31.250 FPS (1536 SPF)
Bit depth : 16 bits
Compression mode : Lossy
Stream size : 226 MiB (7%)
Title : br-master
Language : English
Service kind : Complete Main
Default : No
Forced : No

Text
ID : 4
Format : VobSub
Muxing mode : zlib
Codec ID : S_VOBSUB
Codec ID/Info : Picture based subtitle format used on DVDs
Title : Thai
Language : Thai
Default : No
Forced : No

DOWNLOAD


PART01 |||| PART02 |||| PART03 |||| PART04

PART01 |||| PART02 |||| PART03 |||| PART04

PART01 |||| PART02 |||| PART03 |||| PART04

PART01 |||| PART02 |||| PART03 |||| PART04


5 Comments
  1. Seksunj
    Seksunj says

    Link one2up ผิดครับ โหลดมาเป็นเรื่อง falcon Rising

    1. Admin
      Admin says

      แก้ไขเรียบร้อยฮ๊ะ สงสัย อัพผิด กิกิ

      1. Seksunj
        Seksunj says

        ขอบคุณครับ

  2. Tan159682
    Tan159682 says

    part03 โหลดไม่ได้เลยครับ

    1. Admin
      Admin says

      แก้ไขเรียบร้อยฮ๊ะ

Leave A Reply

Your email address will not be published.

%d bloggers like this: