เว็บโหลดหนัง HD MINI-HD SUPER-HQ Full-HD 1080p One2up VIP Master Zoom ซูม หนังใหม่ ออนไลน์ มาสเตอร์ ไทย จีน ฝรั่ง การ์ตูน

[MINI-HD] Spy Kids (2001) พยัคฆ์จิ๋วไฮเทคผ่าโลก ภาค 1 [720p] [พากย์ไทย 5.1 + อังกฤษ 5.1] [บรรยายไทย] [เสียงไทย + ซับไทย] [ONE2UP]

0

โหลดหนัง Spy Kids (2001) พยัคฆ์จิ๋วไฮเทคผ่าโลก ภาค 1 

เรื่องย่อ Spy Kids (2001) พยัคฆ์จิ๋วไฮเทคผ่าโลก ภาค 1

สองสายลับสากลระดับแนวหน้า เกรกอริโอ และ อิง กริด คอร์เทซ เกษียณตัวเองจากงานสายลับเพื่อมาสร้างครอบครัวร่วมกัน เก้าปีผ่านไป ทั้งคู่ถูกเรียกตัวกลับไป ปฏิบัติการสายลับอีกครั้ง แต่คราวนี้พวกเขาได้ถูกศัตรูลักพาตัวไป ผู้ต้องสงสัยที่อาจมีส่วนเกี่ยวข้องกับการหายตัวอย่า งลึกลับครั้งนี้คือเฟี แกน ฟลุพ (อลัน คัมมิ่ง) พ่อมดแห่งเทคโนโลยีผู้ครอบครองเครื่องมือพิ เศษที่ประดิษฐ์ขึ้นมา สำหรับเปลี่ยนแปลงร่าง ชะตาของอดีตสายลับทั้งสองและอาจหมายถึงชะตาของโลกจะเป็นอย่างไร? ขึ้นอยู่กับความกล้าหาญและปฏิบัติการของเด็กน้อยสอง คนคาร์เมน และ จูนี่ คอร์เทซ ผู้ซี่งผ่านการฝึกฝนวิชาสายลับจากโรงเรียนประถมและวีดิโอเกมส์ พร้อมด้วยอาวุธสุดไฮเทค ใน Spy Kids หรือ “พยัคฆ์จิ๋วไฮเทคผ่าโลก” ผลงานล่าสุดของผู้กำกับชื่อดัง โรเบิร์ต โรดริเกซ (จาก Desperado, From Dusk Till Dawn และ The Faculty)

Complete name : [MINI-HD]_Spy.Kids.2001.720p.AC3.x264.One2loadup.com.mkv
Format : Matroska
Format version : Version 2
File size : 3.06 GiB
Duration : 1 h 27 min
Overall bit rate mode : Variable
Overall bit rate : 4 989 kb/s
Movie name : Spykids1
Encoded date : UTC 2012-05-16 12:54:39
Writing application : mkvmerge v3.4.0 (‘Rapunzel’) built on May 15 2010 09:38:20
Writing library : libebml v0.8.0 + libmatroska v0.9.0

Video
ID : 1
Format : AVC
Format/Info : Advanced Video Codec
Format profile : [email protected]
Format settings : CABAC / 16 Ref Frames
Format settings, CABAC : Yes
Format settings, ReFrames : 16 frames
Codec ID : V_MPEG4/ISO/AVC
Duration : 1 h 27 min
Bit rate mode : Variable
Bit rate : 4 230 kb/s
Maximum bit rate : 300 Mb/s
Width : 1 280 pixels
Height : 720 pixels
Display aspect ratio : 16:9
Frame rate mode : Constant
Frame rate : 23.976 (24000/1001) FPS
Color space : YUV
Chroma subsampling : 4:2:0
Bit depth : 8 bits
Scan type : Progressive
Bits/(Pixel*Frame) : 0.191
Stream size : 2.53 GiB (83%)
Title : [MINI-HD]_Spy.Kids.2001.720p.AC3.x264.One2loadup.com
Writing library : x264 core 120 r2120 0c7dab9
Encoding settings : cabac=1 / ref=16 / deblock=1:-1:-1 / analyse=0x3:0x133 / me=umh / subme=10 / psy=1 / psy_rd=1.00:0.15 / mixed_ref=1 / me_range=24 / chroma_me=1 / trellis=2 / 8x8dct=1 / cqm=0 / deadzone=21,11 / fast_pskip=1 / chroma_qp_offset=-3 / threads=9 / sliced_threads=0 / nr=0 / decimate=1 / interlaced=0 / bluray_compat=0 / constrained_intra=0 / bframes=8 / b_pyramid=0 / b_adapt=2 / b_bias=0 / direct=3 / weightb=1 / open_gop=0 / weightp=2 / keyint=240 / keyint_min=24 / scenecut=40 / intra_refresh=0 / rc_lookahead=60 / rc=2pass / mbtree=1 / bitrate=4230 / ratetol=1.0 / qcomp=0.60 / qpmin=0 / qpmax=69 / qpstep=4 / cplxblur=20.0 / qblur=0.5 / vbv_maxrate=300000 / vbv_bufsize=300000 / nal_hrd=vbr / ip_ratio=1.40 / aq=1:1.00
Language : English
Default : Yes
Forced : No

Audio #1
ID : 2
Format : AC-3
Format/Info : Audio Coding 3
Codec ID : A_AC3
Duration : 1 h 27 min
Bit rate mode : Constant
Bit rate : 384 kb/s
Channel(s) : 6 channels
Channel positions : Front: L C R, Side: L R, LFE
Sampling rate : 48.0 kHz
Frame rate : 31.250 FPS (1536 SPF)
Bit depth : 16 bits
Compression mode : Lossy
Stream size : 241 MiB (8%)
Title : br-master
Language : Thai
Service kind : Complete Main
Default : Yes
Forced : No

Audio #2
ID : 3
Format : AC-3
Format/Info : Audio Coding 3
Codec ID : A_AC3
Duration : 1 h 27 min
Bit rate mode : Constant
Bit rate : 384 kb/s
Channel(s) : 6 channels
Channel positions : Front: L C R, Side: L R, LFE
Sampling rate : 48.0 kHz
Frame rate : 31.250 FPS (1536 SPF)
Bit depth : 16 bits
Compression mode : Lossy
Stream size : 241 MiB (8%)
Title : br-master
Language : English
Service kind : Complete Main
Default : No
Forced : No

Text
ID : 4
Format : VobSub
Muxing mode : zlib
Codec ID : S_VOBSUB
Codec ID/Info : Picture based subtitle format used on DVDs
Title : Thai
Language : Thai
Default : No
Forced : No

DOWNLOAD


PART01 |||| PART02 |||| PART03 |||| PART04

PART01 |||| PART02 |||| PART03 |||| PART04

PART01 |||| PART02 |||| PART03 |||| PART04

PART01 |||| PART02 |||| PART03 |||| PART04


Leave A Reply

Your email address will not be published.

%d bloggers like this: