เว็บโหลดหนัง HD MINI-HD SUPER-HQ Full-HD 1080p One2up VIP Master Zoom ซูม หนังใหม่ ออนไลน์ มาสเตอร์ ไทย จีน ฝรั่ง การ์ตูน

[MINI-HD] Spy Kids 2: Island of Lost Dreams (2002) พยัคฆ์ไฮเทคทะลุเกาะมหาประลัย ภาค 2 [720p] [พากย์ไทย 5.1 + อังกฤษ 5.1] [บรรยายไทย] [เสียงไทย + ซับไทย] [ONE2UP]

0

โหลดหนัง  Spy Kids 2: Island of Lost Dreams (2002) พยัคฆ์ไฮเทคทะลุเกาะมหาประลัย ภาค 2

เรื่องย่อ Spy Kids 2: Island of Lost Dreams (2002) พยัคฆ์ไฮเทคทะลุเกาะมหาประลัย ภาค 2

เป็นสายลับระดับ 2 ของ OSS พร้อมแล้วสำหรับออกปฏิบัติการเดี่ยว อย่างไรก็ตาม คราวนี้ดูเหมือนว่าครอบครัวจะต้องถูกดึงเข้ามาเกี่ยว ข้อง กับการปกป้องโลกจากเกาะภูเขาไฟที่ลึกลับ ซึ่งเป็นที่ตั้งของฐานปฏิบัติการของนักวิทยาศาสตร์สติฟั่นเฟือน พร้อมกับเหล่าสัตว์ประหลาดที่ถูกเขาสร้างขึ้นมา แถมด้วยอุปสรรค์ใหญ่อีกอย่างหนึ่งของสายลับ นั่นคือ เครื่องมือสิ่งประดิษฐ์ของพวกเขา ไม่สามารถจะปฏิบัติการบนดินแดนของเกาะลึกลับนี้ได้ สิ่งเดียวที่พวกเขาใช้ได้คือเชาว์ปัญญาเท่านั้น

Complete name : [MINI-HD]_Spy.Kids.2.Island.of.Lost.Dreams.2002.720p.AC3.x264.One2loadup.com.mkv
Format : Matroska
Format version : Version 2
File size : 2.11 GiB
Duration : 1 h 40 min
Overall bit rate mode : Variable
Overall bit rate : 3 020 kb/s
Movie name : Spykids2 720p
Encoded date : UTC 2012-05-16 21:34:50
Writing application : mkvmerge v3.4.0 (‘Rapunzel’) built on May 15 2010 09:38:20
Writing library : libebml v0.8.0 + libmatroska v0.9.0
IsTruncated : Yes

Video
ID : 1
Format : AVC
Format/Info : Advanced Video Codec
Format profile : [email protected]
Format settings : CABAC / 3 Ref Frames
Format settings, CABAC : Yes
Format settings, ReFrames : 3 frames
Codec ID : V_MPEG4/ISO/AVC
Duration : 1 h 40 min
Bit rate mode : Variable
Bit rate : 2 192 kb/s
Nominal bit rate : 3 708 kb/s
Maximum bit rate : 25.0 Mb/s
Width : 1 280 pixels
Height : 720 pixels
Display aspect ratio : 16:9
Frame rate mode : Constant
Frame rate : 23.976 (24000/1001) FPS
Color space : YUV
Chroma subsampling : 4:2:0
Bit depth : 8 bits
Scan type : Progressive
Bits/(Pixel*Frame) : 0.099
Stream size : 1.53 GiB (73%)
Title : [MINI-HD]_Spy.Kids.2.Island.of.Lost.Dreams.2002.720p.AC3.x264.One2loadup.com
Writing library : x264 core 114 r1924 08d04a4
Encoding settings : cabac=1 / ref=3 / deblock=0:0:0 / analyse=0x3:0x133 / me=tesa / subme=10 / psy=1 / psy_rd=1.00:0.00 / mixed_ref=1 / me_range=16 / chroma_me=1 / trellis=2 / 8x8dct=1 / cqm=0 / deadzone=21,11 / fast_pskip=1 / chroma_qp_offset=-2 / threads=9 / sliced_threads=0 / nr=0 / decimate=1 / interlaced=0 / constrained_intra=0 / bframes=3 / b_pyramid=0 / b_adapt=1 / b_bias=0 / direct=1 / weightb=1 / open_gop=0 / weightp=2 / keyint=240 / keyint_min=24 / scenecut=40 / intra_refresh=0 / rc_lookahead=40 / rc=2pass / mbtree=1 / bitrate=3708 / ratetol=1.0 / qcomp=0.60 / qpmin=0 / qpmax=69 / qpstep=4 / cplxblur=20.0 / qblur=0.5 / vbv_maxrate=25000 / vbv_bufsize=25000 / nal_hrd=vbr / ip_ratio=1.40 / aq=1:1.00
Language : English
Default : Yes
Forced : No

Audio #1
ID : 2
Format : AC-3
Format/Info : Audio Coding 3
Codec ID : A_AC3
Duration : 1 h 40 min
Bit rate mode : Constant
Bit rate : 384 kb/s
Channel(s) : 6 channels
Channel positions : Front: L C R, Side: L R, LFE
Sampling rate : 48.0 kHz
Frame rate : 31.250 FPS (1536 SPF)
Bit depth : 16 bits
Compression mode : Lossy
Stream size : 275 MiB (13%)
Title : ac3 1080p
Language : Thai
Service kind : Complete Main
Default : Yes
Forced : No

Audio #2
ID : 3
Format : AC-3
Format/Info : Audio Coding 3
Codec ID : A_AC3
Duration : 1 h 40 min
Bit rate mode : Constant
Bit rate : 384 kb/s
Channel(s) : 6 channels
Channel positions : Front: L C R, Side: L R, LFE
Sampling rate : 48.0 kHz
Frame rate : 31.250 FPS (1536 SPF)
Bit depth : 16 bits
Compression mode : Lossy
Stream size : 275 MiB (13%)
Title : ac3 1080p
Language : English
Service kind : Complete Main
Default : No
Forced : No

Text
ID : 4
Format : VobSub
Muxing mode : zlib
Codec ID : S_VOBSUB
Codec ID/Info : Picture based subtitle format used on DVDs
Title : Thai
Language : Thai
Default : No
Forced : No

DOWNLOAD


PART01 |||| PART02 |||| PART03 |||| PART04

PART01 |||| PART02 |||| PART03 |||| PART04

PART01 |||| PART02 |||| PART03 |||| PART04

PART01 |||| PART02 |||| PART03 |||| PART04


Leave A Reply

Your email address will not be published.

%d bloggers like this: