โหลดหนัง HD MINI-HD SUPER-HQ Full-HD 1080p VIP Master Zoom ซูม หนังใหม่ ออนไลน์ มาสเตอร์ ไทย จีน ฝรั่ง การ์ตูน

[Mini-HD] Species IV: The Awakening (2007) สายพันธุ์มฤตยู ปลุกชีพพันธุ์นรก ภาค 4 [1080p] [พากย์ไทย 5.1 + อังกฤษ 5.1] [บรรยายไทย + อังกฤษ] [เสียงไทย + ซับไทย] [OPENLOAD]

0

โหลดหนัง  Species IV: The Awakening (2007) สายพันธุ์มฤตยู ปลุกชีพพันธุ์นรก ภาค 4

เรื่องย่อ Species IV: The Awakening (2007) สายพันธุ์มฤตยู ปลุกชีพพันธุ์นรก ภาค 4

นักวิทยาศาสตร์นาม ดร.ฮอแลนเดอร์ พา มิแรนด้า หลานสาวของเขาไปเม็กซิโก เพื่อหาทางยับยั้งและทำลายผลข้างเคียงจากดีเอ็นเอของ เอเลี่ยนที่เขาใช้สร้างเธอขึ้นมาแต่แล้วการรักษาเกิด ผิดพลาด มันกลับกระตุ้นสัญชาตญาณฆ่าในตัวเธอออกมา และตามล่าเพื่อหาคู่สืบพันธุ์สยอง

Complete name : [MINI-HD]_Species.4.The.Awakening.2007.1080p.AC3.One2loadup.com.mkv
Format : Matroska
Format version : Version 2
File size : 1.94 GiB
Duration : 1 h 38 min
Overall bit rate : 2 830 kb/s
Encoded date : UTC 2013-11-13 15:10:45
Writing application : mkvmerge v4.0.0 (‘The Stars were mine’) built on Jun 5 2010 17:44:09
Writing library : libebml v1.0.0 + libmatroska v1.0.0

Video
ID : 1
Format : AVC
Format/Info : Advanced Video Codec
Format profile : [email protected]
Format settings : 1 Ref Frames
Format settings, CABAC : No
Format settings, ReFrames : 1 frame
Codec ID : V_MPEG4/ISO/AVC
Duration : 1 h 38 min
Bit rate : 2 000 kb/s
Width : 1 920 pixels
Height : 1 080 pixels
Display aspect ratio : 16:9
Original display aspect rat : 16:9
Frame rate mode : Constant
Frame rate : 29.970 (29970/1000) FPS
Color space : YUV
Chroma subsampling : 4:2:0
Bit depth : 8 bits
Scan type : Progressive
Bits/(Pixel*Frame) : 0.032
Stream size : 1.33 GiB (69%)
Writing library : x264 core 116 r2019 9cc407d
Encoding settings : cabac=0 / ref=1 / deblock=1:0:0 / analyse=0x3:0x113 / me=hex / subme=7 / psy=1 / psy_rd=1.00:0.00 / mixed_ref=0 / me_range=16 / chroma_me=1 / trellis=1 / 8x8dct=1 / cqm=0 / deadzone=21,11 / fast_pskip=1 / chroma_qp_offset=-2 / threads=3 / sliced_threads=0 / nr=0 / decimate=1 / interlaced=0 / bluray_compat=0 / constrained_intra=0 / bframes=0 / weightp=2 / keyint=250 / keyint_min=25 / scenecut=40 / intra_refresh=0 / rc_lookahead=40 / rc=abr / mbtree=1 / bitrate=2000 / ratetol=1.0 / qcomp=0.60 / qpmin=0 / qpmax=69 / qpstep=4 / ip_ratio=1.40 / aq=1:1.00
Default : Yes
Forced : No

Audio #1
ID : 2
Format : AC-3
Format/Info : Audio Coding 3
Commercial name : Dolby Digital
Codec ID : A_AC3
Duration : 1 h 38 min
Bit rate mode : Constant
Bit rate : 384 kb/s
Channel(s) : 6 channels
Channel layout : L R C LFE Ls Rs
Sampling rate : 48.0 kHz
Frame rate : 31.250 FPS (1536 SPF)
Bit depth : 16 bits
Compression mode : Lossy
Stream size : 269 MiB (14%)
Language : Thai
Service kind : Complete Main
Default : Yes
Forced : No

Audio #2
ID : 3
Format : AC-3
Format/Info : Audio Coding 3
Commercial name : Dolby Digital
Codec ID : A_AC3
Duration : 1 h 38 min
Bit rate mode : Constant
Bit rate : 448 kb/s
Channel(s) : 6 channels
Channel layout : L R C LFE Ls Rs
Sampling rate : 48.0 kHz
Frame rate : 31.250 FPS (1536 SPF)
Bit depth : 16 bits
Compression mode : Lossy
Stream size : 314 MiB (16%)
Language : English
Service kind : Complete Main
Default : No
Forced : No

Text #1
ID : 4
Format : VobSub
Muxing mode : zlib
Codec ID : S_VOBSUB
Codec ID/Info : Picture based subtitle format used on DVDs
Language : English
Default : Yes
Forced : No

Text #2
ID : 5
Format : VobSub
Muxing mode : zlib
Codec ID : S_VOBSUB
Codec ID/Info : Picture based subtitle format used on DVDs
Language : Thai
Default : No
Forced : No

Text #3
ID : 6
Format : VobSub
Muxing mode : zlib
Codec ID : S_VOBSUB
Codec ID/Info : Picture based subtitle format used on DVDs
Language : Thai
Default : No
Forced : No

DOWNLOAD


PART01 |||| PART02

PART01 |||| PART02

PART01 |||| PART02

PART01 |||| PART02


Leave A Reply

Your email address will not be published.

%d bloggers like this: