โหลดหนัง HD MINI-HD SUPER-HQ Full-HD 1080p VIP Master Zoom ซูม หนังใหม่ ออนไลน์ มาสเตอร์ ไทย จีน ฝรั่ง การ์ตูน

[Mini-HD] Species III (2004) สายพันธุ์มฤตยู ภาค 3 [1080p] [พากย์ไทย 5.1 + อังกฤษ 5.1] [บรรยายไทย + อังกฤษ] [เสียงไทย + ซับไทย] [OPENLOAD]

0

โหลดหนัง  Species III (2004) สายพันธุ์มฤตยู ภาค 3

เรื่องย่อ Species III (2004) สายพันธุ์มฤตยู ภาค 3

ภาคที่สามของภาพยนตร์ไซไฟสยองขวัญชุดนี้ มาพร้อมสเปเชี่ยลเอฟเฟ็กต์สุดสะพรึง และเรื่องราวชวนระทึก พร้อมการแสดงแจ้งเกิดของเซ็กซี่สตาร์คนใหม่ ซันนี่ แมบรี่ ในการต่อสู้ที่ยังดำเนินอยู่ระหว่างฝ่ายมนุษย์กับฝ่ายสายพันธุ์ลูกครึ่งเอเลี่ยน ความอ่อนแอของฝ่ายหลังทำให้มนุษย์มีชัยเหนือกว่าจนกระทั่งเวลานี้ เมื่อซาร่าลูกสาวของอีฟ ถือกำเนิด เธอได้พัฒนาสายพันธุ์เอเลี่ยนที่แข็งแกร่ง สายพันธุ์มฤตยูกำเนิดใหม่พันธุ์นรก และออกตามหาคู่เพื่อแพร่เผ่าพันธุ์ของเธอยึดครองโลก นั่นทำให้กองทัพต้องส่งทีมทหารออกตามล่าเธอ เพื่อยุติสงครามให้จบสิ้นไปตลอดกาล

Complete name : [MINI-HD]_Species.3.2004.1080p.AC3.One2loadup.com.mkv
Format : Matroska
Format version : Version 2
File size : 2.26 GiB
Duration : 1 h 51 min
Overall bit rate : 2 891 kb/s
Encoded date : UTC 2013-11-06 07:19:12
Writing application : mkvmerge v4.0.0 (‘The Stars were mine’) built on Jun 5 2010 17:44:09
Writing library : libebml v1.0.0 + libmatroska v1.0.0

Video
ID : 1
Format : AVC
Format/Info : Advanced Video Codec
Format profile : [email protected]
Format settings : 1 Ref Frames
Format settings, CABAC : No
Format settings, ReFrames : 1 frame
Codec ID : V_MPEG4/ISO/AVC
Duration : 1 h 51 min
Bit rate : 2 000 kb/s
Width : 1 920 pixels
Height : 1 080 pixels
Display aspect ratio : 16:9
Original display aspect rat : 16:9
Frame rate mode : Constant
Frame rate : 29.970 (29970/1000) FPS
Color space : YUV
Chroma subsampling : 4:2:0
Bit depth : 8 bits
Scan type : Progressive
Bits/(Pixel*Frame) : 0.032
Stream size : 1.51 GiB (67%)
Writing library : x264 core 116 r2019 9cc407d
Encoding settings : cabac=0 / ref=1 / deblock=1:0:0 / analyse=0x3:0x113 / me=hex / subme=7 / psy=1 / psy_rd=1.00:0.00 / mixed_ref=0 / me_range=16 / chroma_me=1 / trellis=1 / 8x8dct=1 / cqm=0 / deadzone=21,11 / fast_pskip=1 / chroma_qp_offset=-2 / threads=3 / sliced_threads=0 / nr=0 / decimate=1 / interlaced=0 / bluray_compat=0 / constrained_intra=0 / bframes=0 / weightp=2 / keyint=250 / keyint_min=25 / scenecut=40 / intra_refresh=0 / rc_lookahead=40 / rc=abr / mbtree=1 / bitrate=2000 / ratetol=1.0 / qcomp=0.60 / qpmin=0 / qpmax=69 / qpstep=4 / ip_ratio=1.40 / aq=1:1.00
Default : Yes
Forced : No

Audio #1
ID : 2
Format : AC-3
Format/Info : Audio Coding 3
Commercial name : Dolby Digital
Codec ID : A_AC3
Duration : 1 h 51 min
Bit rate mode : Constant
Bit rate : 448 kb/s
Channel(s) : 6 channels
Channel layout : L R C LFE Ls Rs
Sampling rate : 48.0 kHz
Frame rate : 31.250 FPS (1536 SPF)
Bit depth : 16 bits
Compression mode : Lossy
Stream size : 359 MiB (15%)
Language : Thai
Service kind : Complete Main
Default : Yes
Forced : No

Audio #2
ID : 3
Format : AC-3
Format/Info : Audio Coding 3
Commercial name : Dolby Digital
Codec ID : A_AC3
Duration : 1 h 51 min
Bit rate mode : Constant
Bit rate : 448 kb/s
Channel(s) : 6 channels
Channel layout : L R C LFE Ls Rs
Sampling rate : 48.0 kHz
Frame rate : 31.250 FPS (1536 SPF)
Bit depth : 16 bits
Compression mode : Lossy
Stream size : 359 MiB (15%)
Language : English
Service kind : Complete Main
Default : No
Forced : No

Text #1
ID : 4
Format : VobSub
Muxing mode : zlib
Codec ID : S_VOBSUB
Codec ID/Info : Picture based subtitle format used on DVDs
Language : English
Default : Yes
Forced : No

Text #2
ID : 5
Format : VobSub
Muxing mode : zlib
Codec ID : S_VOBSUB
Codec ID/Info : Picture based subtitle format used on DVDs
Language : Thai
Default : No
Forced : No

DOWNLOAD


PART01 |||| PART02 |||| PART03

PART01 |||| PART02 |||| PART03

PART01 |||| PART02 |||| PART03

PART01 |||| PART02 |||| PART03


Leave A Reply

Your email address will not be published.

%d bloggers like this: