โหลดหนัง HD MINI-HD SUPER-HQ Full-HD 1080p VIP Master Zoom ซูม หนังใหม่ ออนไลน์ มาสเตอร์ ไทย จีน ฝรั่ง การ์ตูน

[Mini-HD] Species 1 (1995) สายพันธุ์มฤตยู ภาค 1 [1080p] [พากย์ไทย 5.1 + อังกฤษ 5.1] [บรรยายไทย + อังกฤษ] [เสียงไทย + ซับไทย]

0

โหลดหนัง  Species 1 (1995) สายพันธุ์มฤตยู ภาค 1

เรื่องย่อ Species 1 (1995) สายพันธุ์มฤตยู ภาค 1

เมื่อมนุษย์โลก Species 1 ได้รับการติดต่อจากมนุษย์ต่างดาว และได้ส่งรหัสสายพันธุ์ DNA มาให้ พวกนักวิทยาศาสตร์จึงได้ นำมาใส่ในตัวอ่อนของมนุษย์ ในส่วนของการวิวัฒนาการมากกว่ามนุษย์ปรกติถึง 10 เท่า ตัวอ่อนได้เติบโตขึ้นอย่างรวดเร็วและมีชื่อว่า ซีล เมื่อนักวิทยาศาสตร์ได้ตระหนักว่าได้เกิดการผิดพลาดขึ้นจนยากที่จะควบคุมจึงคิดทำลายซีลซะ เมื่อถูกคุกคามสัญชาติญาณการมีชีวิตรอดจึงเกิดขึ้น ซีลได้หลบหนีออกมาได้ สายพันธุ์มฤตยูสวยสูบนรก และเป้าหมายของเธอก็คือทำการขยายพันธุ์บนโลกให้มากที่สุด

Complete name : [MINI-HD]_Species.1.1995.1080p.AC3.One2loadup.com.mkv
Format : Matroska
Format version : Version 2
File size : 2.12 GiB
Duration : 1 h 48 min
Overall bit rate : 2 803 kb/s
Encoded date : UTC 2013-08-22 12:56:43
Writing application : mkvmerge v4.0.0 (‘The Stars were mine’) built on Jun 5 2010 17:44:09
Writing library : libebml v1.0.0 + libmatroska v1.0.0

Video
ID : 1
Format : AVC
Format/Info : Advanced Video Codec
Format profile : [email protected]
Format settings : 1 Ref Frames
Format settings, CABAC : No
Format settings, ReFrames : 1 frame
Codec ID : V_MPEG4/ISO/AVC
Duration : 1 h 48 min
Bit rate : 2 000 kb/s
Width : 1 920 pixels
Height : 1 080 pixels
Display aspect ratio : 16:9
Original display aspect rat : 16:9
Frame rate mode : Constant
Frame rate : 23.976 (23976/1000) FPS
Color space : YUV
Chroma subsampling : 4:2:0
Bit depth : 8 bits
Scan type : Progressive
Bits/(Pixel*Frame) : 0.040
Stream size : 1.45 GiB (68%)
Writing library : x264 core 80 r1378+57 6f6b50a
Encoding settings : cabac=0 / ref=1 / deblock=1:0:0 / analyse=0x3:0x113 / me=hex / subme=7 / psy=1 / psy_rd=1.0:0.0 / mixed_ref=0 / me_range=16 / chroma_me=1 / trellis=0 / 8x8dct=1 / cqm=0 / deadzone=21,11 / fast_pskip=1 / chroma_qp_offset=-2 / threads=3 / sliced_threads=0 / nr=0 / decimate=1 / mbaff=0 / constrained_intra=0 / bframes=0 / wpredp=2 / keyint=250 / keyint_min=25 / scenecut=40 / rc_lookahead=40 / rc=abr / mbtree=1 / bitrate=2000 / ratetol=1.0 / qcomp=0.60 / qpmin=10 / qpmax=51 / qpstep=4 / ip_ratio=1.40 / aq=1:1.00
Default : Yes
Forced : No

Audio #1
ID : 2
Format : AC-3
Format/Info : Audio Coding 3
Commercial name : Dolby Digital
Codec ID : A_AC3
Duration : 1 h 48 min
Bit rate mode : Constant
Bit rate : 448 kb/s
Channel(s) : 6 channels
Channel layout : L R C LFE Ls Rs
Sampling rate : 48.0 kHz
Frame rate : 31.250 FPS (1536 SPF)
Bit depth : 16 bits
Compression mode : Lossy
Delay relative to video : 1 s 0 ms
Stream size : 347 MiB (16%)
Language : Thai
Service kind : Complete Main
Default : Yes
Forced : No

Audio #2
ID : 3
Format : AC-3
Format/Info : Audio Coding 3
Commercial name : Dolby Digital
Codec ID : A_AC3
Duration : 1 h 48 min
Bit rate mode : Constant
Bit rate : 384 kb/s
Channel(s) : 6 channels
Channel layout : L R C LFE Ls Rs
Sampling rate : 48.0 kHz
Frame rate : 31.250 FPS (1536 SPF)
Bit depth : 16 bits
Compression mode : Lossy
Delay relative to video : 1 s 0 ms
Stream size : 298 MiB (14%)
Language : English
Service kind : Complete Main
Default : No
Forced : No

Text #1
ID : 4
Format : VobSub
Muxing mode : zlib
Codec ID : S_VOBSUB
Codec ID/Info : Picture based subtitle format used on DVDs
Language : Thai
Default : Yes
Forced : No

Text #2
ID : 5
Format : VobSub
Muxing mode : zlib
Codec ID : S_VOBSUB
Codec ID/Info : Picture based subtitle format used on DVDs
Language : English
Default : No
Forced : No

DOWNLOAD


PART01 |||| PART02 |||| PART03

PART01 |||| PART02 |||| PART03

PART01 |||| PART02 |||| PART03

PART01 |||| PART02 |||| PART03


Leave A Reply

Your email address will not be published.

%d bloggers like this: