โหลดหนัง HD MINI-HD SUPER-HQ Full-HD 1080p VIP Master Zoom ซูม หนังใหม่ ออนไลน์ มาสเตอร์ ไทย จีน ฝรั่ง การ์ตูน

[MINI-HD] Shaun of the Dead (2004) รุ่งอรุณแห่งความวาย (ป่วง) [1080p] [พากย์ไทย 2.0 + เสียงอังกฤษ 5.1] [บรรยายไทย + อังกฤษ] [เสียงไทย + ซับไทย] [OPENLOAD]

0

โหลดหนัง Shaun of the Dead (2004) รุ่งอรุณแห่งความวาย (ป่วง) 

เรื่องย่อ Shaun of the Dead (2004) รุ่งอรุณแห่งความวาย (ป่วง)

หนังซอมบี้สุดฮาเลือดสาดที่ถึงขนาดถูกยกให้เป็นหนังซอมบี้ปนตลกที่ยอดเยี่ยมที่สุดกันเลยทีเดียว Shaun Of The Dead หยิบเอาหนังซอมบี้สุดคลาสสิคอย่าง Dawn Of The Dead เอามายำรวมกับหนังสยองขวัญเรื่องอื่นจนฮาซะไม่มีชิ้นดี หนังแนวเอาชีวิตรอดจากซอมบี้ที่มันทั้งสนุกทั้งฮาสุดทีน เรื่องราวของ ชอร์นหนุ่มที่ไม่เอาไหนอะไรซักอย่าง วันๆก็ได้แต่ทำงาน แล้วตกเย็นก็มานั่งดื่มเหล้าเป็นประจำที่บาร์ จนแฟนสาวของเขาทนไม่ได้ต้องขอเลิกไป ทำให้ชอว์นตาสว่างคิดจะกลับตัวใหม่เป็นยอดชายที่เต็ม ไปด้วยความรับผิดชอบ เพื่อให้เธอกลับมาหาเขาอีกครั้ง แต่แล้วเหตุการณ์ไม่คาดคิดก็กำลังจะเกิดขึ้น เมื่อซอมบี้ดันยกโขยงมาบุกเมืองพอดี งานนี้ชอว์นเลยต้องออกโรงลุยไปรับเอาตัวแฟนของเขาและ ครอบครัวมาหลบยังที่ปลอดภัยที่สุดที่เขาคิดได้ นั่นก็คือบาร์ที่เขากินเหล้ากินเบียร์ประจำนั่นล่ะ เวรกรรมแล้วไงอะไรจะเกิดขึ้นต่อไป คงต้องติดตามต่อในเรื่องกันเองเนอะ

Complete name : [MINI-HD]_Shaun.of.the.Dead.2004.1080p.BrRip.AC3.x264.One2loadup.com.mkv
Format : Matroska
Format version : Version 4
File size : 3.28 GiB
Duration : 1 h 39 min
Overall bit rate : 4 718 kb/s
Movie name : Shaun.of.the.Dead.2004
Encoded date : UTC 2017-01-20 09:54:17
Writing application : mkvmerge v9.7.1 (‘Pandemonium’) 64bit
Writing library : libebml v1.3.4 + libmatroska v1.4.5
Cover : Yes
Attachments : cover_land.jpg / small_cover.jpg / small_cover_land.jpg / cover.jpg

Video
ID : 1
Format : AVC
Format/Info : Advanced Video Codec
Format profile : [email protected]
Format settings : CABAC / 4 Ref Frames
Format settings, CABAC : Yes
Format settings, ReFrames : 4 frames
Codec ID : V_MPEG4/ISO/AVC
Duration : 1 h 39 min
Bit rate : 4 000 kb/s
Width : 1 920 pixels
Height : 816 pixels
Display aspect ratio : 2.35:1
Frame rate mode : Constant
Frame rate : 23.976 (24000/1001) FPS
Color space : YUV
Chroma subsampling : 4:2:0
Bit depth : 8 bits
Scan type : Progressive
Bits/(Pixel*Frame) : 0.106
Stream size : 2.77 GiB (85%)
Writing library : x264 core 140 r2377 1ca7bb9
Encoding settings : cabac=1 / ref=4 / deblock=1:-3:-3 / analyse=0x3:0x133 / me=umh / subme=11 / psy=1 / psy_rd=1.00:0.00 / mixed_ref=1 / me_range=16 / chroma_me=1 / trellis=2 / 8x8dct=1 / cqm=0 / deadzone=21,11 / fast_pskip=1 / chroma_qp_offset=-2 / threads=6 / lookahead_threads=1 / sliced_threads=0 / nr=0 / decimate=1 / interlaced=0 / bluray_compat=0 / constrained_intra=0 / bframes=6 / b_pyramid=0 / b_adapt=1 / b_bias=0 / direct=1 / weightb=1 / open_gop=0 / weightp=2 / keyint=240 / keyint_min=24 / scenecut=40 / intra_refresh=0 / rc_lookahead=40 / rc=2pass / mbtree=1 / bitrate=4000 / ratetol=1.0 / qcomp=0.60 / qpmin=0 / qpmax=69 / qpstep=4 / cplxblur=20.0 / qblur=0.5 / vbv_maxrate=20000 / vbv_bufsize=20000 / nal_hrd=none / filler=0 / ip_ratio=1.40 / aq=1:1.00
Language : English
Default : Yes
Forced : No

Audio #1
ID : 2
Format : AC-3
Format/Info : Audio Coding 3
Commercial name : Dolby Digital
Codec ID : A_AC3
Duration : 1 h 39 min
Bit rate mode : Constant
Bit rate : 224 kb/s
Channel(s) : 2 channels
Channel layout : L R
Sampling rate : 48.0 kHz
Frame rate : 31.250 FPS (1536 SPF)
Bit depth : 16 bits
Compression mode : Lossy
Delay relative to video : 24 ms
Stream size : 159 MiB (5%)
Language : Thai
Service kind : Complete Main
Default : Yes
Forced : Yes

Audio #2
ID : 3
Format : AC-3
Format/Info : Audio Coding 3
Commercial name : Dolby Digital
Codec ID : A_AC3
Duration : 1 h 39 min
Bit rate mode : Constant
Bit rate : 448 kb/s
Channel(s) : 6 channels
Channel layout : L R C LFE Ls Rs
Sampling rate : 48.0 kHz
Frame rate : 31.250 FPS (1536 SPF)
Bit depth : 16 bits
Compression mode : Lossy
Stream size : 319 MiB (9%)
Language : English
Service kind : Complete Main
Default : No
Forced : No

Text #1
ID : 4
Format : VobSub
Muxing mode : zlib
Codec ID : S_VOBSUB
Codec ID/Info : Picture based subtitle format used on DVDs
Duration : 1 h 33 min
Bit rate : 2 020 b/s
Count of elements : 1255
Stream size : 1.34 MiB (0%)
Language : Thai
Default : No
Forced : No

Text #2
ID : 5
Format : VobSub
Muxing mode : zlib
Codec ID : S_VOBSUB
Codec ID/Info : Picture based subtitle format used on DVDs
Duration : 1 h 33 min
Bit rate : 3 494 b/s
Count of elements : 1253
Stream size : 2.33 MiB (0%)
Title : 720p
Language : Thai
Default : No
Forced : No

Text #3
ID : 6
Format : VobSub
Muxing mode : zlib
Codec ID : S_VOBSUB
Codec ID/Info : Picture based subtitle format used on DVDs
Duration : 1 h 33 min
Bit rate : 5 993 b/s
Count of elements : 1253
Stream size : 3.99 MiB (0%)
Title : 1080p_AS
Language : Thai
Default : No
Forced : No

Text #4
ID : 7
Format : VobSub
Muxing mode : zlib
Codec ID : S_VOBSUB
Codec ID/Info : Picture based subtitle format used on DVDs
Duration : 1 h 33 min
Bit rate : 5 676 b/s
Count of elements : 1253
Stream size : 3.78 MiB (0%)
Title : 1080p_TM
Language : Thai
Default : Yes
Forced : Yes

Text #5
ID : 8
Format : PGS
Muxing mode : zlib
Codec ID : S_HDMV/PGS
Codec ID/Info : Picture based subtitle format used on BDs/HD-DVDs
Duration : 1 h 33 min
Bit rate : 20.3 kb/s
Count of elements : 2506
Stream size : 13.5 MiB (0%)
Title : PGS_AS
Language : Thai
Default : No
Forced : No

Text #6
ID : 9
Format : PGS
Muxing mode : zlib
Codec ID : S_HDMV/PGS
Codec ID/Info : Picture based subtitle format used on BDs/HD-DVDs
Duration : 1 h 33 min
Bit rate : 18.8 kb/s
Count of elements : 2506
Stream size : 12.5 MiB (0%)
Title : PGS_TM
Language : Thai
Default : No
Forced : No

Text #7
ID : 10
Format : UTF-8
Codec ID : S_TEXT/UTF8
Codec ID/Info : UTF-8 Plain Text
Duration : 1 h 33 min
Bit rate : 66 b/s
Count of elements : 1266
Stream size : 45.6 KiB (0%)
Title : English
Language : English
Default : No
Forced : No

DOWNLOAD


PART01 |||| PART02 |||| PART03 |||| PART04

PART01 |||| PART02 |||| PART03 |||| PART04

PART01 |||| PART02 |||| PART03 |||| PART04

PART01 |||| PART02 |||| PART03 |||| PART04


Leave A Reply

Your email address will not be published.

%d bloggers like this: