[MINI-HD] Ruk Sud Teen (2012) รักสุดทีน [720p] [พากย์ไทย 5.1] [หนังไทย] [ไม่มีบรรยาย] [เสียงไทยมาสเตอร์] [OPENLOAD]

0

โหลดหนัง Ruk Sud Teen (2012) รักสุดทีน

Rak Sud Teen (2012) Romance | 1 March 2012 (Thailand) Summary: It's love at first sight when a rebellious playboy falls in love with a girl. He now has to go to great lengths to win her heart.
Countries: ThailandLanguages: Thai

เรื่องย่อ Ruk Sud Teen (2012) รักสุดทีน

ตลอดชีวิตที่ผ่านมา ไม่เคยมี รัก ครั้งไหน หรือ สาวๆ รายใด ที่จะทำให้ เอก-ถึงใจ (มาริโอ้ เมาเร่อ) หนุ่มหน้าลูกครึ่งขวัญใจสาวๆ CEO เจ้าของร้านกางเกงยีนส์ จะต้องเกิดอาการหวั่นไหวจนหัวใจสั่นคลอน ยิ่งแท็คทีมอยู่บนบิ๊กไบค์ 2 ล้อกระชากใจพร้อมกับ 2 เพื่อนซี้ เต็ม-เต็มสูบ (ดีเจพล่ากุ้ง) ไอ้หนุ่มหัว AFRO สุดยียวนที่มีดีในความกวนโอ๊ยและ จั๊ด-จัดให้ (ดีเจจั๊ด-ธีมะ กาญจนไพลิน) หนุ่มสำอางผู้มีใบหน้าหล่อเหลา แต่ต้องปกปิดซ่อนเร้นหัวใจตุ๊ดด้วยการแอ๊บแมน ด้วยแล้ว พูดได้ว่าชีวิตนี้นอกจากกิจการร้านกางเกงยีนส์และกิจกรรมคั่วสาวที่เป็นน้ำหล่อเลี้ยงหัวใจของหนุ่มๆ ทั้ง 3 ก็คงดำเนินต่อไปโดยไม่มีอาการสะดุดรัก

Complete name : [MINI-HD]_Rak.Sud.Teen.2012.720p.DVDRip.AC3.One2loadup.com.mkv
Format : Matroska
Format version : Version 2
File size : 3.31 GiB
Duration : 1 h 50 min
Overall bit rate mode : Variable
Overall bit rate : 4 275 kb/s
Movie name : [MINI-HD]_Rak.Sud.Teen.2012.720p.DVDRip.AC3.One2loadup.com

Video
ID : 1
ID in the original source m : 224 (0xE0)
Format : MPEG Video
Format version : Version 2
Format profile : [email protected]
Format settings : CustomMatrix / BVOP
Format settings, BVOP : Yes
Format settings, Matrix : Custom
Format settings, GOP : M=3, N=14
Codec ID : V_MPEG2
Codec ID/Info : MPEG 1 or 2 Video
Duration : 1 h 50 min
Bit rate mode : Variable
Bit rate : 3 597 kb/s
Maximum bit rate : 9 200 kb/s
Width : 720 pixels
Height : 480 pixels
Display aspect ratio : 16:9
Frame rate mode : Variable
Frame rate : 23.976 (23976/1000) FPS
Original frame rate : 23.976 (24000/1001) FPS
Standard : NTSC
Color space : YUV
Chroma subsampling : 4:2:0
Bit depth : 8 bits
Scan type : Progressive
Scan order : 2:3 Pulldown
Compression mode : Lossy
Bits/(Pixel*Frame) : 0.434
Time code of first frame : 00:00:00:00
Time code source : Group of pictures header
GOP, Open/Closed : Closed
Stream size : 2.78 GiB (84%)
Title : [MINI-HD]_Rak.Sud.Teen.2012.720p.DVDRip.AC3.One2loadup.com
Language : English
Default : No
Forced : No

Audio #1
ID : 2
Format : AC-3
Format/Info : Audio Coding 3
Commercial name : Dolby Digital
Codec ID : A_AC3
Duration : 1 h 50 min
Bit rate mode : Constant
Bit rate : 448 kb/s
Channel(s) : 6 channels
Channel layout : L R C LFE Ls Rs
Sampling rate : 48.0 kHz
Frame rate : 31.250 FPS (1536 SPF)
Bit depth : 16 bits
Compression mode : Lossy
Stream size : 355 MiB (10%)
Title : Surround 5.1
Language : Thai
Service kind : Complete Main
Default : Yes
Forced : No

Audio #2
ID : 3
Format : AC-3
Format/Info : Audio Coding 3
Commercial name : Dolby Digital
Codec ID : A_AC3
Duration : 1 h 50 min
Bit rate mode : Constant
Bit rate : 224 kb/s
Channel(s) : 2 channels
Channel layout : L R
Sampling rate : 48.0 kHz
Frame rate : 31.250 FPS (1536 SPF)
Bit depth : 16 bits
Compression mode : Lossy
Stream size : 178 MiB (5%)
Title : Stereo
Language : Thai
Service kind : Complete Main
Default : No
Forced : No

Menu
00:00:00.000 : en:Chapter 01
00:08:00.346 : en:Chapter 02
00:20:07.039 : en:Chapter 03
00:29:47.902 : en:Chapter 04
00:39:06.627 : en:Chapter 05
00:45:22.753 : en:Chapter 06
00:54:02.906 : en:Chapter 07
01:03:40.766 : en:Chapter 08
01:14:04.606 : en:Chapter 09
01:21:27.132 : en:Chapter 10
01:29:56.224 : en:Chapter 11
01:39:38.639 : en:Chapter 12

DOWNLOAD


PART01 |||| PART02 |||| PART03 |||| PART04

PART01 |||| PART02 |||| PART03 |||| PART04

PART01 |||| PART02 |||| PART03 |||| PART04

PART01 |||| PART02 |||| PART03 |||| PART04


Leave A Reply

Your email address will not be published.

%d bloggers like this: