เว็บโหลดหนัง HD MINI-HD SUPER-HQ Full-HD 1080p One2up VIP Master Zoom ซูม หนังใหม่ ออนไลน์ มาสเตอร์ ไทย จีน ฝรั่ง การ์ตูน

[MINI-HD] Rise of the Planet of the Apes (2011) กำเนิดพิภพวานร [1080p] [พากย์ไทย 5.1 + อังกฤษ DTS] [บรรยายไทย + อังกฤษ] [เสียงไทย + ซับไทย] [ONE2UP]

0

โหลดหนัง  Rise of the Planet of the Apes (2011) กำเนิดพิภพวานร

เรื่องย่อ Rise of the Planet of the Apes (2011) กำเนิดพิภพวานร

เป็นการผสมผสานของการบอกเล่าเรื่องราวในจินตนาการ กับการก้าวกระโดดของวิชวลเอ็ฟเฟ็กต์ขั้นต่อไป สำหรับภาพยนตร์ประสบการณ์ของภาพยนตร์ที่มีอารมณ์ความ รู้สึกและฉากแอ็คชั่น ที่ไม่เหมือนภาพยนตร์เรื่องไหนมาก่อน โดยเป็นการเริ่มต้นจากความถือดีของมนุษย์ซึ่งเป็นชนว นเหตุการณ์ต่างๆ ที่นำไปสู่ความฉลาดของฝูงวานร และเป็นการท้าทายแห่งดินแดนของเราซึ่งเป็นสายพันธุ์ท ี่มีอำนาจในการครองโลก ซีซ่าเป็นวานรอัจฉริยะตัวแรกที่ถูกมนุษย์ล่อลวง และลุกขึ้นมานำเผ่าพันธุ์ของเขาเพื่อแข่งขันกับอิสรภ าพอย่างน่าตื่นเต้น และเผชิญหน้ากับมนุษยชาติในท้ายที่สุด สำหรับตัวละครซีซ่าร์ บริษัท WETA ทีมวิชวลเอ็ฟเฟ็กต์เบื้องหลังภาพยนตร์เรื่อง Avatar ที่คว้ารางวัล Oscar ได้สร้างวานรขึ้นมาด้วยเทคนิค CGI ทำให้เกิดการแสดงอารมณ์และความฉลาดที่น่าตื่นเต้นอย่ างไม่เคยเกิดขึ้นมาก่อน

Complete name : [MINI-HD]_Rise.of.the.Planet.of.the.Apes.2011.1080p.x264.TH.AC3.One2loadup.com.mkv
Format : Matroska
Format version : Version 4 / Version 2
File size : 4.48 GiB
Duration : 1 h 44 min
Overall bit rate : 6 111 kb/s
Encoded date : UTC 2017-10-20 06:07:10 / UTC 2017-10-18T11:10:49Z
Writing application : mkvmerge v8.3.0 (‘Over the Horizon’) 64bit
Writing library : libebml v1.3.1 + libmatroska v1.4.2 / Lavf55.12.0

Video
ID : 1
Format : AVC
Format/Info : Advanced Video Codec
Format profile : [email protected]
Format settings : CABAC / 4 Ref Frames
Format settings, CABAC : Yes
Format settings, ReFrames : 4 frames
Codec ID : V_MPEG4/ISO/AVC
Duration : 1 h 44 min
Bit rate : 4 032 kb/s
Width : 1 920 pixels
Height : 816 pixels
Display aspect ratio : 2.35:1
Frame rate mode : Constant
Frame rate : 23.976 (24000/1001) FPS
Color space : YUV
Chroma subsampling : 4:2:0
Bit depth : 8 bits
Scan type : Progressive
Bits/(Pixel*Frame) : 0.107
Stream size : 2.96 GiB (66%)
Writing library : x264 core 142 r2479 dd79a61
Encoding settings : cabac=1 / ref=1 / deblock=1:0:0 / analyse=0x1:0x111 / me=hex / subme=2 / psy=1 / psy_rd=1.00:0.00 / mixed_ref=0 / me_range=16 / chroma_me=1 / trellis=0 / 8x8dct=0 / cqm=0 / deadzone=21,11 / fast_pskip=1 / chroma_qp_offset=0 / threads=6 / lookahead_threads=2 / sliced_threads=0 / nr=0 / decimate=1 / interlaced=0 / bluray_compat=0 / constrained_intra=0 / bframes=3 / b_pyramid=2 / b_adapt=1 / b_bias=0 / direct=1 / weightb=1 / open_gop=0 / weightp=1 / keyint=240 / keyint_min=24 / scenecut=40 / intra_refresh=0 / rc_lookahead=10 / rc=crf / mbtree=1 / crf=22.0 / qcomp=0.60 / qpmin=0 / qpmax=69 / qpstep=4 / vbv_maxrate=20000 / vbv_bufsize=25000 / crf_max=0.0 / nal_hrd=none / filler=0 / ip_ratio=1.40 / aq=1:1.00
Language : Thai
Default : Yes
Forced : Yes
Color range : Limited
Color primaries : BT.709
Transfer characteristics : BT.709
Matrix coefficients : BT.709
Statistics Tags Issue : mkvmerge v8.3.0 (‘Over the Horizon’) 64bit 2017-10-20 06:07:10 / mkvmerge v8.3.0 (‘Over the Horizon’) 64bit 2017-10-20 06:07:10 / UTC 2017-10-18T11:10:49Z
FromStats_BitRate : 4140501
FromStats_Duration : 01:44:56.475000000
FromStats_FrameCount : 150964
FromStats_StreamSize : 3258820209

Audio #1
ID : 2
Format : DTS
Format/Info : Digital Theater Systems
Codec ID : A_DTS
Duration : 1 h 44 min
Bit rate mode : Constant
Bit rate : 1 509 kb/s
Channel(s) : 6 channels
Channel positions : Front: L C R, Side: L R, LFE
Sampling rate : 48.0 kHz
Frame rate : 93.750 FPS (512 SPF)
Bit depth : 24 bits
Compression mode : Lossy
Stream size : 1.11 GiB (25%)
Title : Surround
Language : English
Default : No
Forced : No
Statistics Tags Issue : mkvmerge v8.3.0 (‘Over the Horizon’) 64bit 2017-10-20 06:07:10 / mkvmerge v8.3.0 (‘Over the Horizon’) 64bit 2017-10-20 06:07:10 / UTC 2017-10-18T11:10:49Z
FromStats_BitRate : 1509000
FromStats_Duration : 01:44:56.448000000
FromStats_FrameCount : 590292
FromStats_StreamSize : 1187667504

Audio #2
ID : 3
Format : AC-3
Format/Info : Audio Coding 3
Codec ID : A_AC3
Duration : 1 h 44 min
Bit rate mode : Constant
Bit rate : 448 kb/s
Channel(s) : 6 channels
Channel positions : Front: L C R, Side: L R, LFE
Sampling rate : 48.0 kHz
Frame rate : 31.250 FPS (1536 SPF)
Bit depth : 16 bits
Compression mode : Lossy
Stream size : 336 MiB (7%)
Title : Surround
Language : Thai
Service kind : Complete Main
Default : Yes
Forced : Yes
Statistics Tags Issue : mkvmerge v8.3.0 (‘Over the Horizon’) 64bit 2017-10-20 06:07:10 / mkvmerge v8.3.0 (‘Over the Horizon’) 64bit 2017-10-20 06:07:10 / UTC 2017-10-18T11:10:49Z
FromStats_BitRate : 448000
FromStats_Duration : 01:44:56.480000000
FromStats_FrameCount : 196765
FromStats_StreamSize : 352602880

Text #1
ID : 4
Format : PGS
Muxing mode : zlib
Codec ID : S_HDMV/PGS
Codec ID/Info : Picture based subtitle format used on BDs/HD-DVDs
Language : English
Default : No
Forced : No
Statistics Tags Issue : mkvmerge v8.3.0 (‘Over the Horizon’) 64bit 2017-10-20 06:07:10 / mkvmerge v8.3.0 (‘Over the Horizon’) 64bit 2017-10-20 06:07:10 / UTC 2017-10-18T11:10:49Z
FromStats_BitRate : 6017
FromStats_Duration : 01:41:46.184000000
FromStats_FrameCount : 1628
FromStats_StreamSize : 4592704

Text #2
ID : 5
Format : PGS
Muxing mode : zlib
Codec ID : S_HDMV/PGS
Codec ID/Info : Picture based subtitle format used on BDs/HD-DVDs
Language : Thai
Default : Yes
Forced : Yes
Statistics Tags Issue : mkvmerge v8.3.0 (‘Over the Horizon’) 64bit 2017-10-20 06:07:10 / mkvmerge v8.3.0 (‘Over the Horizon’) 64bit 2017-10-20 06:07:10 / UTC 2017-10-18T11:10:49Z
FromStats_BitRate : 4656
FromStats_Duration : 01:43:48.806000000
FromStats_FrameCount : 1668
FromStats_StreamSize : 3625228

Menu
00:00:00.000 : :Chapter 1
00:05:24.508 : :Chapter 2
00:09:18.075 : :Chapter 3
00:14:19.167 : :Chapter 4
00:18:07.645 : :Chapter 5
00:20:03.886 : :Chapter 6
00:22:38.249 : :Chapter 7
00:25:17.116 : :Chapter 8
00:29:42.131 : :Chapter 9
00:33:38.367 : :Chapter 10
00:38:29.199 : :Chapter 11
00:41:12.696 : :Chapter 12
00:45:19.109 : :Chapter 13
00:48:50.278 : :Chapter 14
00:52:55.982 : :Chapter 15
00:57:30.381 : :Chapter 16
00:59:26.830 : :Chapter 17
01:01:29.411 : :Chapter 18
01:05:03.709 : :Chapter 19
01:06:19.743 : :Chapter 20
01:09:35.063 : :Chapter 21
01:11:15.789 : :Chapter 22
01:15:44.223 : :Chapter 23
01:18:29.305 : :Chapter 24
01:23:09.376 : :Chapter 25
01:27:50.491 : :Chapter 26
01:33:00.467 : :Chapter 27
01:37:09.049 : :Chapter 28


PART01 |||| PART02 |||| PART03 |||| PART04 |||| PART05

PART01 |||| PART02 |||| PART03 |||| PART04 |||| PART05

PART01 |||| PART02 |||| PART03 |||| PART04 |||| PART05

PART01 |||| PART02 |||| PART03 |||| PART04 |||| PART05


Leave A Reply

Your email address will not be published.

%d bloggers like this: