[MINI-HD] Rio (2011) เจ้านกฟ้าจอมมึน ภาค 1 [1080p] [พากย์ไทย 5.1 + เสียงอังกฤษ DTS] [บรรยายไทย + อังกฤษ] [เสียงไทย + ซับไทย] [ONE2UP]

0

Rio (2011) เจ้านกฟ้าจอมมึน ภาค 1

โหลดหนัง Rio (2011) เจ้านกฟ้าจอมมึน ภาค 1

เรื่องย่อ Rio (2011) เจ้านกฟ้าจอมมึน ภาค 1

จากผู้สร้างภาพยนตร์ซีรี่ส์ยอดนิยมเรื่อง ICE AGE มาสู่ภาพยนตร์แนวผจญภัยคอมเมดี้เรื่อง RIO มีเนื้อหาเกี่ยวกับการเดินทางสู่ป่าอันกว้างใหญ่ บลูเป็นนกแก้วมาคอว์แสนเชื่อที่ไม่เคยฝึกบิน และสนุกสนานกับชีวิตที่แสนสบายกับ ลินดา เจ้าของและเพื่อนที่แสนดีในเมืองเล็ก ๆ Moose Lake แห่งมินเนสโซต้า บลูกับลินดาคิดว่าเขาเป็นนกตัวสุดท้ายของสายพันธุ์ แต่เมื่อพวกเขารู้ว่ามีนกแก้วมาคอว์อีกตัวหนึ่งอาศัย อยู่ในรีโอ เดอ จานีโร พวกเขาได้มุ่งหน้าไปยังดินแดนที่อยู่ต่างถิ่นแสนไกลเ พื่อค้นหาจูล นกตัวเมียสายพันธุ์เดียวกับบลู หลังจากที่พวกเขาเดินทางมาถึงเพียงไม่นาน บลูกับจูลถูกกลุ่มคนลักลอบนำสัตว์เข้าประเทศลักพาตัวไป บลูหลบหนีโดยมีการช่วยเหลือจากจูล ผู้ชำนาญทางและเหล่านกประจำถิ่นช่างจ้อและมีเสียงหวาน ตอนนี้พร้อมกับฝูงเพื่อนใหม่ที่อยู่เคียงข้างเขา บลูต้องค้นหาความกล้าเพื่อเรียนรู้วิธีบิน ขัดขวางพวกลักขโมยที่ตามไล่ล่าพวกเขา และกลับไปหาลินดาเพื่อนผู้แสนดีที่นกอย่างเขาเคยมีมา

Complete name : [MINI-HD]_Rio.2011.1080p.BrRip.DTS.x264.One2loadup.com.mkv
Format : Matroska
Format version : Version 4
File size : 3.79 GiB
Duration : 1 h 35 min
Overall bit rate : 5 656 kb/s
Movie name : [MINI-HD]_Rio.2011.1080p.BrRip.DTS.x264.One2loadup.com
Encoded date : UTC 2016-10-29 13:29:04 / UTC 2016-10-29T11:36:57Z
Writing library : libebml v1.3.1 + libmatroska v1.4.2 / Lavf55.12.0

Video
ID : 1
Format : AVC
Format/Info : Advanced Video Codec
Format profile : [email protected]
Format settings : CABAC / 4 Ref Frames
Format settings, CABAC : Yes
Format settings, ReFrames : 4 frames
Codec ID : V_MPEG4/ISO/AVC
Duration : 1 h 35 min
Bit rate : 3 586 kb/s
Width : 1 920 pixels
Height : 800 pixels
Display aspect ratio : 2.40:1
Frame rate mode : Constant
Frame rate : 23.976 (24000/1001) FPS
Color space : YUV
Chroma subsampling : 4:2:0
Bit depth : 8 bits
Scan type : Progressive
Bits/(Pixel*Frame) : 0.097
Stream size : 2.40 GiB (63%)
Title : [MINI-HD]_Rio.2011.1080p.BrRip.DTS.x264.One2loadup.com
Writing library : x264 core 142 r2479 dd79a61
Encoding settings : cabac=1 / ref=1 / deblock=1:0:0 / analyse=0x1:0x111 / me=hex / subme=2 / psy=1 / psy_rd=1.00:0.00 / mixed_ref=0 / me_range=16 / chroma_me=1 / trellis=0 / 8x8dct=0 / cqm=0 / deadzone=21,11 / fast_pskip=1 / chroma_qp_offset=0 / threads=6 / lookahead_threads=2 / sliced_threads=0 / nr=0 / decimate=1 / interlaced=0 / bluray_compat=0 / constrained_intra=0 / bframes=3 / b_pyramid=2 / b_adapt=1 / b_bias=0 / direct=1 / weightb=1 / open_gop=0 / weightp=1 / keyint=240 / keyint_min=24 / scenecut=40 / intra_refresh=0 / rc_lookahead=10 / rc=crf / mbtree=1 / crf=20.0 / qcomp=0.60 / qpmin=0 / qpmax=69 / qpstep=4 / vbv_maxrate=20000 / vbv_bufsize=25000 / crf_max=0.0 / nal_hrd=none / filler=0 / ip_ratio=1.40 / aq=1:1.00
Language : Thai
Default : Yes
Forced : Yes
Color range : Limited
Color primaries : BT.709
Transfer characteristics : BT.709
Matrix coefficients : BT.709

Audio #1
ID : 2
Format : DTS
Format/Info : Digital Theater Systems
Codec ID : A_DTS
Duration : 1 h 35 min
Bit rate mode : Constant
Bit rate : 1 509 kb/s
Channel(s) : 6 channels
Channel layout : C L R Ls Rs LFE
Sampling rate : 48.0 kHz
Frame rate : 93.750 FPS (512 SPF)
Bit depth : 24 bits
Compression mode : Lossy
Stream size : 1.01 GiB (27%)
Title : Surround
Language : English
Default : No
Forced : No

Audio #2
ID : 3
Format : AC-3
Format/Info : Audio Coding 3
Commercial name : Dolby Digital
Codec ID : A_AC3
Duration : 1 h 35 min
Bit rate mode : Constant
Bit rate : 448 kb/s
Channel(s) : 6 channels
Channel layout : L R C LFE Ls Rs
Sampling rate : 48.0 kHz
Frame rate : 31.250 FPS (1536 SPF)
Bit depth : 16 bits
Compression mode : Lossy
Stream size : 307 MiB (8%)
Title : Surround
Language : Thai
Service kind : Complete Main
Default : Yes
Forced : Yes

Text #1
ID : 4
Format : PGS
Muxing mode : zlib
Codec ID : S_HDMV/PGS
Codec ID/Info : Picture based subtitle format used on BDs/HD-DVDs
Language : Thai
Default : Yes
Forced : Yes

Text #2
ID : 5
Format : PGS
Muxing mode : zlib
Codec ID : S_HDMV/PGS
Codec ID/Info : Picture based subtitle format used on BDs/HD-DVDs
Language : English
Default : No
Forced : No

Menu
00:00:00.000 : :Chapter 1
00:04:59.692 : :Chapter 2
00:09:59.324 : :Chapter 3
00:14:59.958 : :Chapter 4
00:19:59.591 : :Chapter 5
00:24:59.974 : :Chapter 6
00:29:59.481 : :Chapter 7
00:34:59.406 : :Chapter 8
00:39:59.748 : :Chapter 9
00:45:00.090 : :Chapter 10
00:50:00.056 : :Chapter 11
00:54:59.730 : :Chapter 12
00:59:59.446 : :Chapter 13
01:04:59.287 : :Chapter 14
01:09:59.671 : :Chapter 15
01:14:59.637 : :Chapter 16
01:19:59.812 : :Chapter 17
01:24:59.361 : :Chapter 18
01:29:59.995 : :Chapter 19
01:34:59.461 : :Chapter 20

DOWNLOAD


PART01 |||| PART02 |||| PART03 |||| PART04

PART01 |||| PART02 |||| PART03 |||| PART04

PART01 |||| PART02 |||| PART03 |||| PART04

PART01 |||| PART02 |||| PART03 |||| PART04


Leave A Reply

Your email address will not be published.

%d bloggers like this: