โหลดหนัง HD MINI-HD SUPER-HQ Full-HD 1080p VIP Master Zoom ซูม หนังใหม่ ออนไลน์ มาสเตอร์ ไทย จีน ฝรั่ง การ์ตูน

[MINI-HD] Puss in Boots (2011) พุซ อิน บู๊ทส์ [720p] [พากย์ไทย 5.1 + อังกฤษ 5.1] [บรรยายไทย + อังกฤษ] [เสียงไทย + ซับไทย] [ONE2UP]

0

โหลดหนัง  Puss in Boots (2011) พุซ อิน บู๊ทส์

เรื่องย่อ Puss in Boots (2011) พุซ อิน บู๊ทส์

ในฤดูใบไม้ร่วงปีนี้ การผจญภัยจะมีเก้าชีวิตเมื่อดรีมเวิร์คส์ อนิเมชัน สตูดิโอผู้อยู่เบื้องหลัง How to Train Your Dragon, Shrek และ Kung Fu Panda ภูมิใจนำเสนอเรื่องราวสุดอลังของ พุส อิน บูทส์ แมวเหมียวในรองเท้าบู๊ท ที่ฮาที่สุดและมีขนสลวยสวยเก๋ที่สุดในโลกภาพยนตร์

นานมาแล้วก่อนที่เขาจะได้พบกับ ชเร็ค พุส อิน บู๊ทส์ (แอนโทนิโอ แบนเดอรัส) นักสู้ นักรักและคนนอกกฎหมายชื่อกระฉ่อน กลายเป็นวีรบุรุษเมื่อเขาได้ออกผจญภัยกับ คิตตี้ ซอฟท์พอว์ (ซัลมา ฮาเย็ค) แมวสาวผู้แข็งแกร่งและปราดเปรียว และ ฮัมป์ตี้ ดัมป์ตี้ (แซ็ค กาลิฟิอานาคิส) หัวสมองของกลุ่ม เพื่อรักษาเมืองตัวเองเอาไว้ให้ได้ สิ่งที่ทำให้เรื่องราวอลหม่านมากยิ่งขึ้นไปอีกคือบรรดาพวกนอกกฎหมาย แจ็ค และจิล (บิลลี บ็อบ ธอร์นตันและเอมี เซดาริส) ผู้ทำทุกวิถีทางเพื่อขัดขวางไม่ให้พุสและเพื่อนร่วมทางของเขาทำได้สำเร็จนี่เป็นเรื่องราวจริงของแมว เรื่องเล่า ตำนาน…และแน่นอน รองเท้าบู๊ทคู่นั้น

Puss in Boots กำกับ โดยคริส มิลเลอร์ อำนวยการสร้างโดยโจ เอ็ม. อากีลาร์และลาติฟา อูอาอู ผู้ควบคุมงานสร้างคือแอนดรูว์ อดัมสันและกุยเลอร์โม เดล โทโร บทภาพยนตร์โดยทอม วีลเลอร์ ด้วยเรื่องราวโดยไบรอัน ลินช์, วิล เดวีส์และทอม วีลเลอร์ ดนตรีโดยเฮนรี แจ็คแมน ภาพยนตร์เรื่องนี้ได้เรท “PG” จากแอ็กชันผจญภัยบางตอนและมุขหยาบคายเล็ก ๆ โดย MPAA

Complete name : [MINI-HD]_Puss.in.Boots.2011.BluRay.720p.AC3.x264.One2loadup.com.mkv
Format : Matroska
Format version : Version 4 / Version 2
File size : 2.61 GiB
Duration : 1 h 30 min
Overall bit rate : 4 146 kb/s
Encoded date : UTC 2014-09-04 02:19:55
Writing application : mkvmerge v6.9.1 (‘Blue Panther’) 32bit built on Apr 18 2014 18:15:44
Writing library : libebml v1.3.0 + libmatroska v1.4.1

Video
ID : 1
Format : AVC
Format/Info : Advanced Video Codec
Format profile : [email protected]
Format settings, CABAC : Yes
Format settings, RefFrames : 5 frames
Codec ID : V_MPEG4/ISO/AVC
Duration : 1 h 30 min
Bit rate : 2 824 kb/s
Width : 1 280 pixels
Height : 544 pixels
Display aspect ratio : 2.35:1
Frame rate mode : Constant
Frame rate : 23.976 FPS
Color space : YUV
Chroma subsampling : 4:2:0
Bit depth : 8 bits
Scan type : Progressive
Bits/(Pixel*Frame) : 0.169
Stream size : 1.75 GiB (67%)
Title : [MINI-HD]_Puss.in.Boots.2011.BluRay.720p.AC3.x264.One2loadup.com
Writing library : x264 core 120 r2164 da19765
Encoding settings : cabac=1 / ref=5 / deblock=1:0:0 / analyse=0x3:0x133 / me=umh / subme=7 / psy=1 / psy_rd=1.00:0.00 / mixed_ref=1 / me_range=16 / chroma_me=1 / trellis=1 / 8x8dct=1 / cqm=0 / deadzone=21,11 / fast_pskip=0 / chroma_qp_offset=-2 / threads=12 / sliced_threads=0 / nr=0 / decimate=1 / interlaced=0 / bluray_compat=0 / constrained_intra=0 / bframes=3 / b_pyramid=2 / b_adapt=1 / b_bias=0 / direct=1 / weightb=1 / open_gop=0 / weightp=2 / keyint=250 / keyint_min=23 / scenecut=40 / intra_refresh=0 / rc_lookahead=40 / rc=2pass / mbtree=1 / bitrate=2824 / ratetol=1.0 / qcomp=0.60 / qpmin=0 / qpmax=69 / qpstep=4 / cplxblur=20.0 / qblur=0.5 / ip_ratio=1.40 / aq=1:1.00
Language : English
Default : Yes
Forced : Yes

Audio #1
ID : 2
Format : AC-3
Format/Info : Audio Coding 3
Format settings, Endianness : Big
Codec ID : A_AC3
Duration : 1 h 30 min
Bit rate mode : Constant
Bit rate : 640 kb/s
Channel(s) : 6 channels
Channel positions : Front: L C R, Side: L R, LFE
Sampling rate : 48.0 kHz
Frame rate : 31.250 FPS (1536 SPF)
Bit depth : 16 bits
Compression mode : Lossy
Stream size : 413 MiB (15%)
Title : Thai AC-3 5.1 at 640 Kbps BluRay Master
Language : Thai
Service kind : Complete Main
Default : Yes
Forced : Yes

Audio #2
ID : 3
Format : AC-3
Format/Info : Audio Coding 3
Format settings, Endianness : Big
Codec ID : A_AC3
Duration : 1 h 30 min
Bit rate mode : Constant
Bit rate : 640 kb/s
Channel(s) : 6 channels
Channel positions : Front: L C R, Side: L R, LFE
Sampling rate : 48.0 kHz
Frame rate : 31.250 FPS (1536 SPF)
Bit depth : 16 bits
Compression mode : Lossy
Stream size : 413 MiB (15%)
Title : English AC-3 5.1 at 640 Kbps
Language : English
Service kind : Complete Main
Default : No
Forced : No

Text #1
ID : 4
Format : VobSub
Muxing mode : zlib
Codec ID : S_VOBSUB
Codec ID/Info : Picture based subtitle format used on DVDs
Title : Thai 480p
Language : Thai
Default : No
Forced : No

Text #2
ID : 5
Format : VobSub
Muxing mode : zlib
Codec ID : S_VOBSUB
Codec ID/Info : Picture based subtitle format used on DVDs
Title : Thai 720p
Language : Thai
Default : No
Forced : No

Text #3
ID : 6
Format : VobSub
Muxing mode : zlib
Codec ID : S_VOBSUB
Codec ID/Info : Picture based subtitle format used on DVDs
Title : Thai 1080p BluRay Master
Language : Thai
Default : Yes
Forced : Yes

Text #4
ID : 7
Format : VobSub
Muxing mode : zlib
Codec ID : S_VOBSUB
Codec ID/Info : Picture based subtitle format used on DVDs
Title : Thai 1080p BluRay Master [Out]
Language : Thai
Default : No
Forced : No

Text #5
ID : 8
Format : PGS
Muxing mode : zlib
Codec ID : S_HDMV/PGS
Codec ID/Info : Picture based subtitle format used on BDs/HD-DVDs
Title : Thai PGS BluRay Master
Language : Thai
Default : No
Forced : No

Text #6
ID : 9
Format : VobSub
Muxing mode : zlib
Codec ID : S_VOBSUB
Codec ID/Info : Picture based subtitle format used on DVDs
Title : English 1080p BluRay Master
Language : English
Default : No
Forced : No

Text #7
ID : 10
Format : VobSub
Muxing mode : zlib
Codec ID : S_VOBSUB
Codec ID/Info : Picture based subtitle format used on DVDs
Title : English 1080p BluRay Master [Out]
Language : English
Default : No
Forced : No

Text #8
ID : 11
Format : PGS
Muxing mode : zlib
Codec ID : S_HDMV/PGS
Codec ID/Info : Picture based subtitle format used on BDs/HD-DVDs
Title : English PGS BluRay Master
Language : English
Default : No
Forced : No

Text #9
ID : 12
Format : UTF-8
Codec ID : S_TEXT/UTF8
Codec ID/Info : UTF-8 Plain Text
Title : English SRT
Language : English
Default : No
Forced : No

Text #10
ID : 13
Format : UTF-8
Codec ID : S_TEXT/UTF8
Codec ID/Info : UTF-8 Plain Text
Title : English SDH SRT
Language : English
Default : No
Forced : No

 


PART01 |||| PART02 |||| PART03

PART01 |||| PART02 |||| PART03

PART01 |||| PART02 |||| PART03

PART01 |||| PART02 |||| PART03


Leave A Reply

Your email address will not be published.

%d bloggers like this: