โหลดหนัง HD MINI-HD SUPER-HQ Full-HD 1080p VIP Master Zoom ซูม หนังใหม่ ออนไลน์ มาสเตอร์ ไทย จีน ฝรั่ง การ์ตูน

[MINI-HD] Planet of the Apes (2001) พิภพวานร [1080p] [พากย์ไทย 5.1 + อังกฤษ DTS] [บรรยายไทย + อังกฤษ] [เสียงไทย + ซับไทย] [ONE2UP]

0

โหลดหนัง Planet of the Apes (2001) พิภพวานร  

เรื่องย่อ Planet of the Apes (2001) พิภพวานร

ปี ค.ศ.2029 เมื่ออากาศยานลำหนึ่งเกิดขัดข้อง ระหว่างภารกิจการสำรวจ นักบินหนุ่ม ลีโอ เดวิดสัน (มาร์ค วอลเบิร์ก) พยายามนำเครื่องลงไปยังพิภพประหลาด เขาพบว่ามันเป็นโลกที่ล้าหลัง และเต็มไปด้วยความป่าเถื่อน ปกครองโดยบรรดาวานรทั้งหลาย ในขณะที่บรรดามนุษยชาติกลับถูกไล่ล่า และตกเป็นทาสรับใช้ของวานรร่างยักษ์ ลีโอได้รับความเห็นอกเห็นใจจากวานรสาวนาม อารี (เฮเลน่า บอนแฮม คาร์เตอร์) ช่วยเหลือให้เขาและเชลยมนุษย์กลุ่มหนึ่งหลบหนี ลีโอพยายามหลีกเลี่ยงการปะทะ กับกองทัพวานรที่นำโดย แม่ทัพเธด (ทิม ร็อธ) และนายทหารจอมโหดคู่ใจ แอ็ททาร์ (ไมเคิ้ล คล้าร์ก ดันแคน) ลีโอพยายามนำผู้คน หลบหนีไปยังวิหารต้องห้าม เพื่อ”กลับ”ไปสู่โลกมนุษย์

Complete name : [MINI-HD]_Planet.of.the.Apes.2001.1080p.x264.TH.AC3.One2loadup.com.mkv
Format : Matroska
Format version : Version 4 / Version 2
File size : 4.24 GiB
Duration : 1 h 59 min
Overall bit rate : 5 054 kb/s
Encoded date : UTC 2017-10-20 05:35:47 / UTC 2017-10-18T04:04:38Z
Writing application : mkvmerge v8.3.0 (‘Over the Horizon’) 64bit
Writing library : libebml v1.3.1 + libmatroska v1.4.2 / Lavf55.12.0

Video
ID : 1
Format : AVC
Format/Info : Advanced Video Codec
Format profile : [email protected]
Format settings : CABAC / 4 Ref Frames
Format settings, CABAC : Yes
Format settings, ReFrames : 4 frames
Codec ID : V_MPEG4/ISO/AVC
Bit rate : 2 996 kb/s
Width : 1 920 pixels
Height : 820 pixels
Display aspect ratio : 2.35:1
Original display aspect rat : 2.35:1
Frame rate mode : Variable
Color space : YUV
Chroma subsampling : 4:2:0
Bit depth : 8 bits
Scan type : Progressive
Writing library : x264 core 142 r2479 dd79a61
Encoding settings : cabac=1 / ref=1 / deblock=1:0:0 / analyse=0x1:0x111 / me=hex / subme=2 / psy=1 / psy_rd=1.00:0.00 / mixed_ref=0 / me_range=16 / chroma_me=1 / trellis=0 / 8x8dct=0 / cqm=0 / deadzone=21,11 / fast_pskip=1 / chroma_qp_offset=0 / threads=6 / lookahead_threads=2 / sliced_threads=0 / nr=0 / decimate=1 / interlaced=0 / bluray_compat=0 / constrained_intra=0 / bframes=3 / b_pyramid=2 / b_adapt=1 / b_bias=0 / direct=1 / weightb=1 / open_gop=0 / weightp=1 / keyint=240 / keyint_min=24 / scenecut=40 / intra_refresh=0 / rc_lookahead=10 / rc=crf / mbtree=1 / crf=21.0 / qcomp=0.60 / qpmin=0 / qpmax=69 / qpstep=4 / vbv_maxrate=20000 / vbv_bufsize=25000 / crf_max=0.0 / nal_hrd=none / filler=0 / ip_ratio=1.40 / aq=1:1.00
Language : Thai
Default : Yes
Forced : Yes
Color range : Limited
Color primaries : BT.709
Transfer characteristics : BT.709
Matrix coefficients : BT.709
Statistics Tags Issue : mkvmerge v8.3.0 (‘Over the Horizon’) 64bit 2017-10-20 05:35:47 / mkvmerge v8.3.0 (‘Over the Horizon’) 64bit 2017-10-20 05:35:47 / UTC 2017-10-18T04:04:38Z
FromStats_BitRate : 3075148
FromStats_Duration : 01:59:58.084000000
FromStats_FrameCount : 172581
FromStats_StreamSize : 2766896980

Audio #1
ID : 2
Format : DTS
Format/Info : Digital Theater Systems
Codec ID : A_DTS
Duration : 1 h 59 min
Bit rate mode : Constant
Bit rate : 1 509 kb/s
Channel(s) : 6 channels
Channel positions : Front: L C R, Side: L R, LFE
Sampling rate : 48.0 kHz
Frame rate : 93.750 FPS (512 SPF)
Bit depth : 24 bits
Compression mode : Lossy
Stream size : 1.26 GiB (30%)
Title : Surround
Language : English
Default : No
Forced : No
Statistics Tags Issue : mkvmerge v8.3.0 (‘Over the Horizon’) 64bit 2017-10-20 05:35:47 / mkvmerge v8.3.0 (‘Over the Horizon’) 64bit 2017-10-20 05:35:47 / UTC 2017-10-18T04:04:38Z
FromStats_BitRate : 1508999
FromStats_Duration : 01:59:58.059000000
FromStats_FrameCount : 674818
FromStats_StreamSize : 1357733816

Audio #2
ID : 3
Format : AC-3
Format/Info : Audio Coding 3
Codec ID : A_AC3
Duration : 1 h 59 min
Bit rate mode : Constant
Bit rate : 448 kb/s
Channel(s) : 6 channels
Channel positions : Front: L C R, Side: L R, LFE
Sampling rate : 48.0 kHz
Frame rate : 31.250 FPS (1536 SPF)
Bit depth : 16 bits
Compression mode : Lossy
Stream size : 384 MiB (9%)
Title : Surround
Language : Thai
Service kind : Complete Main
Default : Yes
Forced : Yes
Statistics Tags Issue : mkvmerge v8.3.0 (‘Over the Horizon’) 64bit 2017-10-20 05:35:47 / mkvmerge v8.3.0 (‘Over the Horizon’) 64bit 2017-10-20 05:35:47 / UTC 2017-10-18T04:04:38Z
FromStats_BitRate : 448000
FromStats_Duration : 01:59:58.080000000
FromStats_FrameCount : 224940
FromStats_StreamSize : 403092480

Text #1
ID : 4
Format : PGS
Muxing mode : zlib
Codec ID : S_HDMV/PGS
Codec ID/Info : Picture based subtitle format used on BDs/HD-DVDs
Language : English
Default : No
Forced : No
Statistics Tags Issue : mkvmerge v8.3.0 (‘Over the Horizon’) 64bit 2017-10-20 05:35:47 / mkvmerge v8.3.0 (‘Over the Horizon’) 64bit 2017-10-20 05:35:47 / UTC 2017-10-18T04:04:38Z
FromStats_BitRate : 14131
FromStats_Duration : 01:48:02.441000000
FromStats_FrameCount : 1594
FromStats_StreamSize : 11450831

Text #2
ID : 5
Format : PGS
Muxing mode : zlib
Codec ID : S_HDMV/PGS
Codec ID/Info : Picture based subtitle format used on BDs/HD-DVDs
Language : Thai
Default : Yes
Forced : Yes
Statistics Tags Issue : mkvmerge v8.3.0 (‘Over the Horizon’) 64bit 2017-10-20 05:35:47 / mkvmerge v8.3.0 (‘Over the Horizon’) 64bit 2017-10-20 05:35:47 / UTC 2017-10-18T04:04:38Z
FromStats_BitRate : 7033
FromStats_Duration : 01:48:30.170000000
FromStats_FrameCount : 1516
FromStats_StreamSize : 5723852

Menu
00:00:00.000 : :Chapter 1
00:03:16.648 : :Chapter 2
00:06:03.482 : :Chapter 3
00:10:20.572 : :Chapter 4
00:12:58.313 : :Chapter 5
00:14:58.683 : :Chapter 6
00:17:38.050 : :Chapter 7
00:21:05.800 : :Chapter 8
00:25:25.935 : :Chapter 9
00:27:55.876 : :Chapter 10
00:34:21.595 : :Chapter 11
00:36:40.066 : :Chapter 12
00:38:14.703 : :Chapter 13
00:41:35.111 : :Chapter 14
00:45:22.839 : :Chapter 15
00:46:17.852 : :Chapter 16
00:49:45.851 : :Chapter 17
00:52:34.645 : :Chapter 18
00:55:39.830 : :Chapter 19
00:59:35.023 : :Chapter 20
01:02:28.113 : :Chapter 21
01:07:31.791 : :Chapter 22
01:11:22.980 : :Chapter 23
01:16:32.415 : :Chapter 24
01:19:53.866 : :Chapter 25
01:22:59.426 : :Chapter 26
01:25:34.414 : :Chapter 27
01:27:45.295 : :Chapter 28
01:32:54.938 : :Chapter 29
01:34:49.803 : :Chapter 30
01:35:56.536 : :Chapter 31
01:39:26.120 : :Chapter 32
01:42:10.284 : :Chapter 33
01:45:33.612 : :Chapter 34
01:50:14.810 : :Chapter 35
01:52:54.887 : :Chapter 36

DOWNLOAD


PART01 |||| PART02 |||| PART03 |||| PART04 |||| PART05

PART01 |||| PART02 |||| PART03 |||| PART04 |||| PART05

PART01 |||| PART02 |||| PART03 |||| PART04 |||| PART05

PART01 |||| PART02 |||| PART03 |||| PART04 |||| PART05


Leave A Reply

Your email address will not be published.

%d bloggers like this: