โหลดหนัง HD MINI-HD SUPER-HQ Full-HD 1080p VIP Master Zoom ซูม หนังใหม่ ออนไลน์ มาสเตอร์ ไทย จีน ฝรั่ง การ์ตูน

[MINI-HD] Planet 51 (2006) แพลนเน็ต 51 [720p] [DVDRipMaster] [พากย์ไทย 5.1 + อังกฤษ 2.0 ] [บรรยายไทย + อังกฤษ] [เสียงไทย + ซับไทย] [ONE2UP]

0

โหลดหนัง Planet 51 (2006) แพลนเน็ต 51

เรื่องย่อ Planet 51 (2006) แพลนเน็ต 51

เรื่องของกัปตันชาร์ลส “ชัค” เบเกอร์ ผู้นำยานร่อนลงจอดบนดาว 51 และคิดว่าเขาคือผู้ค้นพบดาวดวงนี้เป็นคนแรก ด้วยความประหลาดใจ เค้าค้นพบว่าดาวนี้มีผู้อาศัยเป็นสิ่งมีชีวิตตัวเล็ก สีเขียว ผู้ซึ่งใช้ชีวิตอย่างมีความสุขหลังรั้วสีขาว ที่ชวนให้นึกถึงชีวิตของชาวอเมริกันปี 50 และสิ่งเดียวที่เจ้าตัวน้อยสีเขียวหวาดกลัวก็คือ การเข้ามาของผู้รุกรานแปลกหน้า อย่าง ชัค ด้วยความช่วยเหลือของเพื่อนหุ่นยนตร์ โรเวอร์ และเพื่อนใหม่ เลม ชัค ต้องออกสำรวจดินแดนแห่งดาวหมายเลข 51 เพื่อให้รอดจากการเป็นส่วนหนึ่งของพิพิธภัณฑ์ผู้รุกรานต่างดาว แห่งดวงดาว 51

Complete name : [MINI-HD]_Planet.51.2009.720p.DVDRip.AC3.One2loadup.com.mkv
Format : Matroska
Format version : Version 2
File size : 4.15 GiB
Duration : 1 h 26 min
Overall bit rate mode : Variable
Overall bit rate : 6 845 kb/s
Encoded date : UTC 2018-05-16 00:54:31

Video
ID : 1
ID in the original source m : 224 (0xE0)
Format : MPEG Video
Format version : Version 2
Format profile : [email protected]
Format settings : CustomMatrix / BVOP
Format settings, BVOP : Yes
Format settings, Matrix : Custom
Format settings, GOP : Variable
Format settings, picture st : Frame
Codec ID : V_MPEG2
Codec ID/Info : MPEG 1 or 2 Video
Duration : 1 h 26 min
Bit rate mode : Variable
Bit rate : 5 998 kb/s
Maximum bit rate : 8 000 kb/s
Width : 720 pixels
Height : 576 pixels
Display aspect ratio : 16:9
Frame rate mode : Constant
Frame rate : 25.000 FPS
Standard : PAL
Color space : YUV
Chroma subsampling : 4:2:0
Bit depth : 8 bits
Scan type : Interlaced
Scan order : Top Field First
Compression mode : Lossy
Bits/(Pixel*Frame) : 0.579
Time code of first frame : 01:00:00:00
Time code source : Group of pictures header
Stream size : 3.64 GiB (88%)
Language : English
Default : No
Forced : No

Audio #1
ID : 2
Format : AC-3
Format/Info : Audio Coding 3
Codec ID : A_AC3
Duration : 1 h 26 min
Bit rate mode : Constant
Bit rate : 448 kb/s
Channel(s) : 6 channels
Channel positions : Front: L C R, Side: L R, LFE
Sampling rate : 48.0 kHz
Frame rate : 31.250 FPS (1536 SPF)
Bit depth : 16 bits
Compression mode : Lossy
Stream size : 278 MiB (7%)
Title : Surround 5.1
Language : Thai
Service kind : Complete Main
Default : Yes
Forced : No

Audio #2
ID : 3
Format : AC-3
Format/Info : Audio Coding 3
Codec ID : A_AC3
Duration : 1 h 26 min
Bit rate mode : Constant
Bit rate : 384 kb/s
Channel(s) : 2 channels
Channel positions : Front: L R
Sampling rate : 48.0 kHz
Frame rate : 31.250 FPS (1536 SPF)
Bit depth : 16 bits
Compression mode : Lossy
Stream size : 238 MiB (6%)
Title : Stereo
Language : English
Service kind : Complete Main
Default : No
Forced : No

Text #1
ID : 4
Format : VobSub
Codec ID : S_VOBSUB
Duration : 1 h 19 min
Bit rate : 4 796 b/s
Count of elements : 984
Stream size : 2.72 MiB (0%)
Language : Thai
Default : Yes
Forced : No

Text #2
ID : 5
Format : VobSub
Codec ID : S_VOBSUB
Duration : 1 h 19 min
Bit rate : 5 109 b/s
Count of elements : 984
Stream size : 2.90 MiB (0%)
Language : English
Default : No
Forced : No

Menu
00:00:00.000 : en:Chapter 01
00:09:52.640 : en:Chapter 02
00:17:52.200 : en:Chapter 03
00:28:32.240 : en:Chapter 04
00:37:20.320 : en:Chapter 05
00:50:00.400 : en:Chapter 06
01:00:40.120 : en:Chapter 07
01:11:44.440 : en:Chapter 08

DOWNLOAD


PART01 |||| PART02 |||| PART03 |||| PART04

PART01 |||| PART02 |||| PART03 |||| PART04

PART01 |||| PART02 |||| PART03 |||| PART04

PART01 |||| PART02 |||| PART03 |||| PART04


Leave A Reply

Your email address will not be published.

%d bloggers like this: