[MINI-HD] Operation Dumbo Drop (1995) ยุทธการช้างลอยฟ้า [1080p] [พากย์ไทย 2.0 + เสียงอังกฤษ DTS] [บรรยายอังกฤษ] [เสียงไทย + ซับ ENG] [OPENLOAD]

0

โหลดหนัง Operation Dumbo Drop (1995) ยุทธการช้างลอยฟ้า

Operation Dumbo Drop (1995) 1h 47min | Action, Adventure, Comedy | 12 October 1995 (Netherlands) Summary: To keep the loyalty of a village during the Vietnam war, a U.S. Army officer and his unit struggle to deliver it a live elephant.
Countries: USALanguages: English, Vietnamese

เรื่องย่อ Operation Dumbo Drop (1995) ยุทธการช้างลอยฟ้า

ระหว่างสงครามเวียดนาม หมู่บ้านแห่งหนึ่งที่ทหารอเมริกันใช้เป็นจุดสอดแนมช้างที่นั่นถูกฆ่าตายโดยทหารฝ่ายเวียดนามเหนือเนื่องจากพวกเขาให้ความร่วมมือกับฝ่ายอเมริกัน ชาวบ้านจึงอยากจะจัดพิธีบูชาให้ช้างขึ้นในสัปดาห์นั้น กัปตัน แซม คาฮิล (แดนนี่ โกลเวอร์) จึงขอยืมช้างตัวอื่นเพื่อเดินทางข้ามทางใต้ของเวียดนามไปยังหมู่บ้านแห่งนั้นให้ทันเวลาจัดงานโดยระหว่างการเดินทางครั้งนี้ เขาได้พบอุปสรรคต่างๆ มากมายทั้งความขัดแย้งส่วนตัวรวมทั้งทหารฝ่ายเวียดนามเหนือ ที่ยังคงต้องการให้ทหารอเมริกันออกจากหมู่บ้านไปให้ได้

Complete name : [MINI-HD]_Operation.Dumbo.Drop.1995.720p.BrRip.DTS.x264.One2loadup.com.mkv
Format : Matroska
Format version : Version 2
File size : 5.04 GiB
Duration : 1 h 48 min
Overall bit rate : 6 659 kb/s
Movie name : [MINI-HD]_Operation.Dumbo.Drop.1995.720p.BRRip.DTS.x264.One2loadup.com
Encoded date : UTC 2017-05-01 08:35:30
Writing application : mkvmerge v5.8.0 (‘No Sleep / Pillow’) built on Sep 2 2012 15:37:04
Writing library : libebml v1.2.3 + libmatroska v1.3.0

Video
ID : 1
Format : AVC
Format/Info : Advanced Video Codec
Format profile : [email protected]
Format settings : CABAC / 5 Ref Frames
Format settings, CABAC : Yes
Format settings, ReFrames : 5 frames
Codec ID : V_MPEG4/ISO/AVC
Duration : 1 h 48 min
Bit rate : 5 724 kb/s
Width : 1 280 pixels
Height : 544 pixels
Display aspect ratio : 2.35:1
Frame rate mode : Constant
Frame rate : 23.976 (24000/1001) FPS
Color space : YUV
Chroma subsampling : 4:2:0
Bit depth : 8 bits
Scan type : Progressive
Bits/(Pixel*Frame) : 0.343
Stream size : 4.22 GiB (84%)
Title : [MINI-HD]_Operation.Dumbo.Drop.1995.720p.BRRip.DTS.x264.One2loadup.com
Writing library : x264 core 148 r2692 64f4e24
Encoding settings : cabac=1 / ref=5 / deblock=1:-3:-3 / analyse=0x3:0x113 / me=umh / subme=8 / psy=1 / psy_rd=1.10:0.00 / mixed_ref=1 / me_range=24 / chroma_me=1 / trellis=1 / 8x8dct=1 / cqm=0 / deadzone=21,11 / fast_pskip=1 / chroma_qp_offset=-2 / threads=17 / lookahead_threads=2 / sliced_threads=0 / nr=0 / decimate=1 / interlaced=0 / bluray_compat=0 / constrained_intra=0 / bframes=3 / b_pyramid=2 / b_adapt=2 / b_bias=0 / direct=3 / weightb=1 / open_gop=0 / weightp=2 / keyint=240 / keyint_min=24 / scenecut=40 / intra_refresh=0 / rc_lookahead=50 / rc=2pass / mbtree=1 / bitrate=5724 / ratetol=1.0 / qcomp=0.60 / qpmin=0 / qpmax=69 / qpstep=4 / cplxblur=20.0 / qblur=0.5 / ip_ratio=1.40 / aq=3:0.80
Language : English
Default : Yes
Forced : Yes
Statistics Tags Issue : no_variable_data 1970-01-01 00:00:00 / mkvmerge v5.8.0 (‘No Sleep / Pillow’) built on Sep 2 2012 15:37:04 2017-05-01 08:35:30
FromStats_BitRate : 5722221
FromStats_Duration : 01:48:08.065000000
FromStats_FrameCount : 155558
FromStats_StreamSize : 4640768068

Audio #1
ID : 2
Format : AC-3
Format/Info : Audio Coding 3
Commercial name : Dolby Digital
Codec ID : A_AC3
Duration : 1 h 48 min
Bit rate mode : Constant
Bit rate : 192 kb/s
Channel(s) : 2 channels
Channel layout : L R
Sampling rate : 48.0 kHz
Frame rate : 31.250 FPS (1536 SPF)
Bit depth : 16 bits
Compression mode : Lossy
Delay relative to video : 1 s 500 ms
Stream size : 149 MiB (3%)
Title : THAI VHS 2.0 @ 192 Kpbs
Language : Thai
Service kind : Complete Main
Default : Yes
Forced : Yes

Audio #2
ID : 3
Format : DTS
Format/Info : Digital Theater Systems
Codec ID : A_DTS
Duration : 1 h 48 min
Bit rate mode : Constant
Bit rate : 755 kb/s
Channel(s) : 6 channels
Channel layout : C L R Ls Rs LFE
Sampling rate : 48.0 kHz
Frame rate : 93.750 FPS (512 SPF)
Bit depth : 24 bits
Compression mode : Lossy
Stream size : 585 MiB (11%)
Title : ENG DTS 5.1 @ 755 Kbps
Language : English
Default : No
Forced : No

Text
ID : 4
Format : UTF-8
Codec ID : S_TEXT/UTF8
Codec ID/Info : UTF-8 Plain Text
Title : ENG SRT
Language : English
Default : No
Forced : No

Menu
00:00:00.000 : en:00:00:00.000
00:11:39.782 : en:00:11:39.782
00:16:32.825 : en:00:16:32.825
00:24:20.501 : en:00:24:20.501
00:30:04.928 : en:00:30:04.928
00:41:50.758 : en:00:41:50.758
00:51:20.077 : en:00:51:20.077
01:02:50.392 : en:01:02:50.392
01:09:05.308 : en:01:09:05.308
01:20:18.605 : en:01:20:18.605
01:23:00.309 : en:01:23:00.309
01:43:58.149 : en:01:43:58.149

DOWNLOAD


PART01 |||| PART02 |||| PART03 |||| PART04 |||| PART05 |||| PART06

PART01 |||| PART02 |||| PART03 |||| PART04 |||| PART05 |||| PART06

PART01 |||| PART02 |||| PART03 |||| PART04 |||| PART05 |||| PART06

PART01 |||| PART02 |||| PART03 |||| PART04 |||| PART05 |||| PART06


Leave A Reply

Your email address will not be published.