[MINI-HD] Necromancer (2005) จอมขมังเวทย์ [1080p] [พากย์ไทย 2.0] [ไม่มีบรรยาย] [เสียงไทย] [OPENLOAD]

0

โหลดหนัง  Necromancer (2005) จอมขมังเวทย์

Jom kha mung wej (2005) 1h 58min | Crime, Fantasy, Horror | 10 March 2005 (Thailand) Summary: The former corrupt police officer and necromancer Itti escapes from prison using black magic and Lieutenant Santi is assigned to chase him. Santi feels the supernatural powers of Itti and ... See full summary »
Countries: ThailandLanguages: Thai

เรื่องย่อ Necromancer (2005) จอมขมังเวทย์

เป็นเรื่องราว ของนายตำรวจหนุ่มไฟแรง ที่ได้พบกับศาสตร์ลี้ลับ และความเชื่อ ที่อยู่คู่กับสังคมไทยมาช้านาน และชีวิตของเขาจะเป็นอย่างไร ติดตามได้ในเรื่องนี้ครับ

Complete name : [MINI-HD]_Necromancer.2005.1080p.x264.One2loadup.com.mkv
Format : Matroska
Format version : Version 4
File size : 3.74 GiB
Duration : 1 h 44 min
Overall bit rate : 5 101 kb/s
Movie name : [MINI-HD]_Necromancer.2005.1080p.x264.One2loadup.com
Encoded date : UTC 2016-10-04 07:32:51
Writing application : mkvmerge v8.3.0 (‘Over the Horizon’) 32bit
Writing library : libebml v1.3.1 + libmatroska v1.4.2

Video
ID : 1
Format : AVC
Format/Info : Advanced Video Codec
Format profile : [email protected]
Format settings : 1 Ref Frames
Format settings, CABAC : No
Format settings, ReFrames : 1 frame
Codec ID : V_MPEG4/ISO/AVC
Duration : 1 h 44 min
Bit rate : 5 000 kb/s
Width : 1 920 pixels
Height : 1 080 pixels
Display aspect ratio : 16:9
Frame rate mode : Constant
Frame rate : 23.976 (24000/1001) FPS
Original frame rate : 23.976 (23976/1000) FPS
Color space : YUV
Chroma subsampling : 4:2:0
Bit depth : 8 bits
Scan type : Progressive
Bits/(Pixel*Frame) : 0.101
Stream size : 3.65 GiB (97%)
Title : [MINI-HD]_Necromancer.2005.1080p.x264.One2loadup.com
Writing library : x264 core 148 r2665 a01e339
Encoding settings : cabac=0 / ref=1 / deblock=1:0:0 / analyse=0x3:0x113 / me=hex / subme=7 / psy=1 / psy_rd=1.00:0.00 / mixed_ref=0 / me_range=16 / chroma_me=1 / trellis=1 / 8x8dct=1 / cqm=0 / deadzone=21,11 / fast_pskip=1 / chroma_qp_offset=-2 / threads=6 / lookahead_threads=1 / sliced_threads=0 / nr=0 / decimate=1 / interlaced=0 / bluray_compat=0 / constrained_intra=0 / bframes=0 / weightp=2 / keyint=250 / keyint_min=23 / scenecut=40 / intra_refresh=0 / rc_lookahead=40 / rc=abr / mbtree=1 / bitrate=5000 / ratetol=1.0 / qcomp=0.60 / qpmin=0 / qpmax=69 / qpstep=4 / ip_ratio=1.40 / aq=1:1.00
Default : Yes
Forced : No

Audio
ID : 2
Format : AAC Main
Format/Info : Advanced Audio Codec
Codec ID : A_AAC-1
Duration : 1 h 44 min
Bit rate : 125 kb/s
Channel(s) : 2 channels
Channel layout : L R
Sampling rate : 44.1 kHz
Frame rate : 43.066 FPS (1024 SPF)
Compression mode : Lossy
Stream size : 94.2 MiB (2%)
Default : Yes
Forced : No

DOWNLOAD


PART01 |||| PART02 |||| PART03 |||| PART04

PART01 |||| PART02 |||| PART03 |||| PART04

PART01 |||| PART02 |||| PART03 |||| PART04

PART01 |||| PART02 |||| PART03 |||| PART04


Leave A Reply

Your email address will not be published.

%d bloggers like this: