[MINI-HD] Moneyball (2011) เกมล้มยักษ์ [720p] [พากย์ไทย 5.1 + เสียงอังกฤษ 5.1] [บรรยายไทย + อังกฤษ] [เสียงไทย + ซับไทย] [OPENLOAD]

0

โหลดหนัง  Moneyball (2011) เกมล้มยักษ์

Moneyball (2011) 2h 13min | Biography, Drama, Sport | 17 November 2011 (Netherlands) Summary: Oakland A's general manager Billy Beane's successful attempt to assemble a baseball team on a lean budget by employing computer-generated analysis to acquire new players.
Countries: USALanguages: English

เรื่องย่อ Moneyball (2011) เกมล้มยักษ์

Moneyball สร้างจากชีวิตจริงของ บิลลี่ บีน (Billy Beane) อดีตนักเบสบอลของเมเจอร์ลีกเบสบอล ซึ่งปัจจุบันเป็นผู้จัดการทั่วไปของทีมเบสบอล “โอ๊กแลนด์ แอธเลติกส์” (Oakland Athletics) กับช่วงเวลาที่ เริ่มเกิดวิกฤติทางการเงินของทีม ไม่สามารถจัดหาทุนในการซื้อตัวผู้เล่นเก่ง ๆ มาร่วมทีม ทำให้ฟอร์มเริ่มตกลงเรื่อย ๆ จนผู้จัดการประจำทีมเลยต้องไปขอความช่วยเหลือจากหนุ่มรายหนึ่งที่ค้นพบวิธี ใหม่ในการช่วยคัดเลือกผู้เล่นผ่านโปรแกรมคอมพิวเตอร์ ซึ่งผลที่ออกมา กลับได้ผลแบบดีเกินคาดมาก ๆ

Complete name : [MINI-HD]_Moneyball.2011.720p.BRRip.AC3.x264.One2loadup.com.mkv
Format : Matroska
Format version : Version 2
File size : 2.07 GiB
Duration : 2 h 13 min
Overall bit rate : 2 219 kb/s
Movie name : [MINI-HD]_Moneyball.2011.720p.BRRip.AC3.x264.One2loadup.com
Encoded date : UTC 2012-05-30 16:50:24
Writing application : mkvmerge v4.2.0 (‘No Talking’) built on Jul 28 2010 18:38:23
Writing library : libebml v1.0.0 + libmatroska v1.0.0

Video
ID : 1
Format : AVC
Format/Info : Advanced Video Codec
Format profile : [email protected]
Format settings : CABAC / 4 Ref Frames
Format settings, CABAC : Yes
Format settings, ReFrames : 4 frames
Codec ID : V_MPEG4/ISO/AVC
Duration : 2 h 13 min
Bit rate : 1 383 kb/s
Width : 1 280 pixels
Height : 696 pixels
Display aspect ratio : 1.85:1
Frame rate mode : Constant
Frame rate : 23.976 (24000/1001) FPS
Color space : YUV
Chroma subsampling : 4:2:0
Bit depth : 8 bits
Scan type : Progressive
Bits/(Pixel*Frame) : 0.065
Stream size : 1.25 GiB (61%)
Title : [MINI-HD]_Moneyball.2011.720p.BRRip.AC3.x264.One2loadup.com
Writing library : x264 core 116 r2074 2641b9e
Encoding settings : cabac=1 / ref=3 / deblock=1:0:0 / analyse=0x3:0x113 / me=hex / subme=7 / psy=1 / psy_rd=1.00:0.00 / mixed_ref=1 / me_range=16 / chroma_me=1 / trellis=1 / 8x8dct=1 / cqm=0 / deadzone=21,11 / fast_pskip=1 / chroma_qp_offset=-2 / threads=3 / sliced_threads=0 / nr=0 / decimate=1 / interlaced=0 / bluray_compat=0 / constrained_intra=0 / bframes=3 / b_pyramid=2 / b_adapt=1 / b_bias=0 / direct=1 / weightb=1 / open_gop=1 / weightp=2 / keyint=250 / keyint_min=23 / scenecut=40 / intra_refresh=0 / rc_lookahead=40 / rc=2pass / mbtree=1 / bitrate=1383 / ratetol=1.0 / qcomp=0.60 / qpmin=0 / qpmax=51 / qpstep=4 / cplxblur=20.0 / qblur=0.5 / ip_ratio=1.40 / aq=1:1.00
Language : English
Default : Yes
Forced : No

Audio #1
ID : 2
Format : AC-3
Format/Info : Audio Coding 3
Commercial name : Dolby Digital
Codec ID : A_AC3
Duration : 2 h 13 min
Bit rate mode : Constant
Bit rate : 384 kb/s
Channel(s) : 6 channels
Channel layout : L R C LFE Ls Rs
Sampling rate : 48.0 kHz
Frame rate : 31.250 FPS (1536 SPF)
Bit depth : 16 bits
Compression mode : Lossy
Stream size : 366 MiB (17%)
Title : [THAI AC3 FROM DVD MASTER]
Language : Thai
Service kind : Complete Main
Default : Yes
Forced : Yes

Audio #2
ID : 3
Format : AC-3
Format/Info : Audio Coding 3
Commercial name : Dolby Digital
Codec ID : A_AC3
Duration : 2 h 13 min
Bit rate mode : Constant
Bit rate : 448 kb/s
Channel(s) : 6 channels
Channel layout : L R C LFE Ls Rs
Sampling rate : 48.0 kHz
Frame rate : 31.250 FPS (1536 SPF)
Bit depth : 16 bits
Compression mode : Lossy
Stream size : 427 MiB (20%)
Title : English AC3
Language : English
Service kind : Complete Main
Default : No
Forced : No

Text #1
ID : 4
Format : VobSub
Codec ID : S_VOBSUB
Codec ID/Info : Picture based subtitle format used on DVDs
Title : [SUB THAI FROM DVD MASTER]
Language : Thai
Default : Yes
Forced : Yes

Text #2
ID : 5
Format : UTF-8
Codec ID : S_TEXT/UTF8
Codec ID/Info : UTF-8 Plain Text
Title : ENG SRT
Language : English
Default : No
Forced : No

DOWNLOAD


PART01 |||| PART02 |||| PART03

PART01 |||| PART02 |||| PART03

PART01 |||| PART02 |||| PART03

PART01 |||| PART02 |||| PART03


Leave A Reply

Your email address will not be published.

%d bloggers like this: