โหลดหนัง HD MINI-HD SUPER-HQ Full-HD 1080p VIP Master Zoom ซูม หนังใหม่ ออนไลน์ มาสเตอร์ ไทย จีน ฝรั่ง การ์ตูน

[MINI-HD] Luang-Pee Jazz 5G (2018) หลวงพี่เเจ๊ส 5G [720p] [พากย์ไทย 5.1] [DVDRip] [เสียงไทยมาสเตอร์] [FILECLOUD]

0

โหลดหนัง  Luang-Pee Jazz 5G (2018) หลวงพี่เเจ๊ส 5G

เรื่องย่อ Luang-Pee Jazz 5G (2018) หลวงพี่เเจ๊ส 5G

หนังหลวงพี่แจ๊ส 5G จะเล่าเรื่องราวหลังจากเหตุการณ์วุ่นวายที่หลวงพี่แจ๊ส (แจ๊ส ชวนชื่น) ได้เข้ามาพบเจอเรื่องราวมากมาย ในเมืองหลวงก็ทำให้ท่านได้รับรู้ถึงการใช้ชีวิตที่ไม่ว่าจะเป็นคนธรรมดาหรือว่าเป็นพระภิกษุ ก็ไม่สามารถหลุดพ้นจากเรื่องของความรัก,ความโลภ,ความโกรธและความหลงได้ มีเพียงแต่หลักธรรมคำสอนของพระพุทธศาสนาที่จะค่อยช่วยยึดเหนี่ยวและขัดเกลาจิตใจให้มนุษย์เป็นคนดีและเหตุการณ์วันนั้นก็ทำให้หลวงพี่แจ๊สได้ตัดสินใจบวชต่อไปโดยไม่มีกำหนดสึกหลวงพี่แจ๊สตั้งใจว่าอยากเผยแผ่หลักธรรมคำสอนให้แก่พุทธศาสนิกชนได้เข้าถึงพระพุทธศาสนาอย่างแท้จริงแต่ด้วยหลวงพี่แจ๊สเองก็ยังไม่ได้มีความรู้เกี่ยวกับพุทธศาสนามากมายนัก ท่านจึงออกธุดงค์พร้อมกับลูกศิษย์ คนสนิทนั่นก็คือ มโน (นิก คุณาธิป) กับ สายสิญจน์ (โต้ส อัครัช) ทั้ง 3 ออกตามหาความสงบสุขที่แท้จริงว่าเป็นเช่นไรจนกระทั่งวันหนึ่งระหว่างธุดงค์อยู่ที่จังหวัดสุราษฎร์ธานี หลวงพี่แจ๊สได้ข่าวมาว่า หลวงพ่อจงรวย (หยองลูกหยี) ได้มาย้ายมาเป็นเจ้าอาวาสอยู่ที่วัดในจังหวัดหลวงพี่แจ๊สจึงถือโอกาสไปกราบนมัสการหลวงพ่อ เมื่อพบหลวงพ่อหลวงพ่อก็ได้ไหว้วานหลวงพี่แจ๊สให้พาเณรไปหา หลวงพ่อไชยา (จตุรงค์ พลบูรณ์) ที่กรุงเทพ จึงทำให้หลวงพี่แจ๊สและลูกศิษย์คนสนิททั้ง2ได้เข้ามากรุงเทพอีกครั้ง และเมื่อหลวงพี่แจ๊สมาถึงวัดของหลวงพ่อไชยาแล้วก็ได้นำเณรมาฝากให้กับหลวงพ่อเป็นที่เรียบร้อย หลวงพี่แจ๊สก็ได้ขอตัวลากลับไปออกธุดงค์ต่อแต่ว่าหลวงพ่อไชยาได้ขอให้หลวงพี่แจ๊สอยู่ที่วัดต่อเพราะด้วยเหตุผลที่หลวงพี่แจ๊สมีชื่อเสียงและพอที่จะทำประโยชน์ให้กับวัดได้!!!

Complete name : [MINI-HD]_Luang.Pee.Jazz.5G.2018.DVD.To.Scale.720p.AC3.x264.One2loadup.com.mkv
Format : Matroska
Format version : Version 4 / Version 2
File size : 3.53 GiB
Duration : 1 h 50 min
Overall bit rate : 4 564 kb/s
Encoded date : UTC 2018-07-25 22:27:08
Writing application : mkvmerge v9.2.0 (‘Photograph’) 64bit
Writing library : libebml v1.3.3 + libmatroska v1.4.4

Video
ID : 1
Format : AVC
Format/Info : Advanced Video Codec
Format profile : [email protected]
Format settings : CABAC / 4 Ref Frames
Format settings, CABAC : Yes
Format settings, ReFrames : 4 frames
Codec ID : V_MPEG4/ISO/AVC
Duration : 1 h 50 min
Bit rate : 4 114 kb/s
Width : 1 280 pixels
Height : 720 pixels
Display aspect ratio : 16:9
Frame rate mode : Constant
Frame rate : 25.000 FPS
Color space : YUV
Chroma subsampling : 4:2:0
Bit depth : 8 bits
Scan type : Progressive
Bits/(Pixel*Frame) : 0.179
Stream size : 3.18 GiB (90%)
Writing library : x264 core 148 r2694 3b70645
Encoding settings : cabac=1 / ref=3 / deblock=1:0:0 / analyse=0x3:0x113 / me=umh / subme=10 / psy=1 / psy_rd=1.00:0.00 / mixed_ref=1 / me_range=24 / chroma_me=1 / trellis=2 / 8x8dct=1 / cqm=0 / deadzone=21,11 / fast_pskip=1 / chroma_qp_offset=-2 / threads=12 / lookahead_threads=1 / sliced_threads=0 / nr=0 / decimate=1 / interlaced=0 / bluray_compat=0 / constrained_intra=0 / bframes=3 / b_pyramid=2 / b_adapt=1 / b_bias=0 / direct=1 / weightb=1 / open_gop=0 / weightp=2 / keyint=250 / keyint_min=25 / scenecut=40 / intra_refresh=0 / rc_lookahead=40 / rc=2pass / mbtree=1 / bitrate=4114 / ratetol=1.0 / qcomp=0.60 / qpmin=0 / qpmax=69 / qpstep=4 / cplxblur=20.0 / qblur=0.5 / ip_ratio=1.40 / aq=1:1.00
Default : Yes
Forced : No

Audio
ID : 2
Format : AC-3
Format/Info : Audio Coding 3
Codec ID : A_AC3
Duration : 1 h 50 min
Bit rate mode : Constant
Bit rate : 448 kb/s
Channel(s) : 6 channels
Channel positions : Front: L C R, Side: L R, LFE
Sampling rate : 48.0 kHz
Frame rate : 31.250 FPS (1536 SPF)
Bit depth : 16 bits
Compression mode : Lossy
Stream size : 355 MiB (10%)
Language : Thai
Service kind : Complete Main
Default : No
Forced : No

Menu
00:00:00.000 : en:Chapter 1
00:00:00.920 : en:Chapter 2
00:08:59.720 : en:Chapter 3
00:16:42.800 : en:Chapter 4
00:24:48.600 : en:Chapter 5
00:36:18.600 : en:Chapter 6
00:45:03.680 : en:Chapter 7
00:53:51.480 : en:Chapter 8
01:03:20.640 : en:Chapter 9
01:13:13.800 : en:Chapter 10
01:23:23.640 : en:Chapter 11
01:30:42.960 : en:Chapter 12
01:38:25.680 : en:Chapter 13
01:50:40.040 : en:Chapter 14

DOWNLOAD


PART01 |||| PART02 |||| PART03 |||| PART04

PART01 |||| PART02 |||| PART03 |||| PART04

PART01 |||| PART02 |||| PART03 |||| PART04

PART01 |||| PART02 |||| PART03 |||| PART04


Leave A Reply

Your email address will not be published.

%d bloggers like this: