เว็บโหลดหนัง HD MINI-HD SUPER-HQ Full-HD 1080p One2up VIP Master Zoom ซูม หนังใหม่ ออนไลน์ มาสเตอร์ ไทย จีน ฝรั่ง การ์ตูน

[MINI-HD] L.O.R.D: Legend of Ravaging Dynasties (2016) สงคราม 7 จอมเวทย์ [1080p] [พากย์ไทย 5.1 + จีน 5.1] [บรรยายไทย] [ซับจีน + อังกฤษ ฝัง] [ONE2UP]

2

โหลดหนัง  L.O.R.D: Legend of Ravaging Dynasties (2016) สงคราม 7 จอมเวทย์

เรื่องย่อ L.O.R.D: Legend of Ravaging Dynasties (2016) สงคราม 7 จอมเวทย์

เรื่องราวการต่อสู้แย่งชิงอำนาจสูงสุด สู่การเป็นมหาจอมเวทย์ (โนเบิล ลอร์ด) ของเหล่าจอมเวทย์วิญญาณ (ลอร์ด) ทั้ง 7 ในดินแดนที่มีชื่อว่า “โอดิน” อันประกอบด้วย 4 อาณาจักรใหญ่ ได้แก่
ดิน – อาณาจักร Garcia (กว้างใหญ่และลึกลับที่สุด) น้ำ – อาณาจักร Aslan ลม – อาณาจักร Inde ไฟ – อาณาจักร Foliaier

ทั้งนี้ มหากาพย์การผจญภัยได้เกิดขึ้นบนฉากหลังของสงครามระหว่างผู้วิเศษ ลอร์ด และสัตว์อสูร เมื่อเด็กหนุ่มไร้ประสบการณ์แต่แฝงไว้ด้วยพลังอันยิ่งใหญ่อย่าง Chen Xuedong (ฉีหลิง) ได้รับการชี้นำทางสู่การเดินทางอันน่าอัศจรรย์ ในหนทางการเป็นสาวกแห่งลอร์ด แต่กลับพบความจริงแห่งการคงอยู่ของบุคคลที่เชื่อว่าตายไปแล้ว อีกทั้งยังเป็นตัวแปรสำคัญแห่งประวัติศาสตร์ สงครามแห่งเหล่าผู้วิเศษจึงอุบัติขึ้น ผู้แข็งแกร่งและมีไหวพริบที่สุดเท่านั้น จึงจะคู่ควรกับมหาจอมเวทย์เท่านั้น

Complete name : [MINI-HD]_L.O.R.D.Legend.of.Ravaging.Dynasties.2016.1080p.WEB-DL.H264.One2loadup.com.mkv
Format : Matroska
Format version : Version 4 / Version 2
File size : 4.85 GiB
Duration : 1 h 57 min
Overall bit rate : 5 899 kb/s
Movie name : [MINI-HD]_L.O.R.D.Legend.of.Ravaging.Dynasties.2016.1080p.WEB-DL.H264.One2loadup.com
Encoded date : UTC 2010-02-22 21:41:31
Writing application : mkvmerge v5.9.0 (‘On The Loose’) built on Dec 9 2012 15:37:01
Writing library : libebml v1.3.0 + libmatroska v1.4.0

Video
ID : 1
Format : AVC
Format/Info : Advanced Video Codec
Format profile : [email protected]
Format settings, CABAC : Yes
Format settings, RefFrames : 4 frames
Codec ID : V_MPEG4/ISO/AVC
Duration : 1 h 57 min
Bit rate : 4 886 kb/s
Width : 1 920 pixels
Height : 800 pixels
Display aspect ratio : 2.40:1
Frame rate mode : Constant
Frame rate : 24.000 FPS
Color space : YUV
Chroma subsampling : 4:2:0
Bit depth : 8 bits
Scan type : Progressive
Bits/(Pixel*Frame) : 0.133
Stream size : 4.01 GiB (83%)
Language : Chinese
Default : Yes
Forced : No

Audio #1
ID : 2
Format : AC-3
Format/Info : Audio Coding 3
Format settings, Endianness : Big
Codec ID : A_AC3
Duration : 1 h 57 min
Bit rate mode : Constant
Bit rate : 448 kb/s
Channel(s) : 6 channels
Channel positions : Front: L C R, Side: L R, LFE
Sampling rate : 48.0 kHz
Frame rate : 31.250 FPS (1536 SPF)
Bit depth : 16 bits
Compression mode : Lossy
Stream size : 377 MiB (8%)
Language : Chinese
Service kind : Complete Main
Default : Yes
Forced : Yes

Audio #2
ID : 3
Format : AC-3
Format/Info : Audio Coding 3
Format settings, Endianness : Big
Codec ID : A_AC3
Duration : 1 h 57 min
Bit rate mode : Constant
Bit rate : 448 kb/s
Channel(s) : 6 channels
Channel positions : Front: L C R, Side: L R, LFE
Sampling rate : 48.0 kHz
Frame rate : 31.250 FPS (1536 SPF)
Bit depth : 16 bits
Compression mode : Lossy
Stream size : 377 MiB (8%)
Language : Thai
Service kind : Complete Main
Default : No
Forced : No

Text #1
ID : 4
Format : VobSub
Codec ID : S_VOBSUB
Codec ID/Info : Picture based subtitle format used on DVDs
Language : Thai
Default : Yes
Forced : Yes

Text #2
ID : 5
Format : VobSub
Codec ID : S_VOBSUB
Codec ID/Info : Picture based subtitle format used on DVDs
Language : Thai
Default : No
Forced : No

 

 

DOWNLOAD


PART01 |||| PART02 |||| PART03 |||| PART04 |||| PART05

PART01 |||| PART02 |||| PART03 |||| PART04 |||| PART05

PART01 |||| PART02 |||| PART03 |||| PART04 |||| PART05

PART01 |||| PART02 |||| PART03 |||| PART04 |||| PART05


2 Comments
  1. Krittaya Wasansirikun
    Krittaya Wasansirikun says

    L.O.R.D: Legend of Ravaging Dynasties (2016) สงคราม 7 จอมเวทย์
    part 5 โหลดไม่ได้ทุกอันเลยค่ะ

    1. Admin
      Admin says

      แก้ไขเรียบร้อยฮ๊ะ

Leave A Reply

Your email address will not be published.

%d bloggers like this: