[MINI-HD] King Naresuan 4 (2011) ตำนานสมเด็จพระนเรศวรมหาราช ภาค 4 ศึกนันทบุเรง [1080p] [พากย์ไทย 5.1] [ไม่มีบรรยาย] [เสียงไทย] [OPENLOAD]

0

King Naresuan 4 (2011) ตำนานสมเด็จพระนเรศวรมหาราช ภาค 4 ศึกนันทบุเรง

โหลดหนัง King Naresuan 4 (2011) ตำนานสมเด็จพระนเรศวรมหาราช ภาค 4 ศึกนันทบุเรง

King Naresuan 4 (2011) 2h 12min | Drama, History, War | 11 August 2011 (Thailand) Summary: Add a Plot »
Countries: ThailandLanguages: Thai

เรื่องย่อ King Naresuan 4 (2011) ตำนานสมเด็จพระนเรศวรมหาราช ภาค 4 ศึกนันทบุเรง

กองทัพกษัตริย์ของพระเจ้าหงสาวดีนันทบุเรงมีความสมบูรณ์ยิ่งใหญ่น่าเกรงขามกว่าทุกศึก ประกอบด้วยช้าง 3200 ทัพม้า 12000 และไพร่ราบซึ่งมีจำนวนถึง 252000 โดยมีนายทัพผู้ปรีชาสามารถร่วมรบ ทั้งพระมหาอุปราชา มังจาปะโร และลักไวทำมูทหารกล้ากิตติศัพท์ ความยิ่งใหญ่น่าเกรงขามของทัพหงสาวดีที่ยกเข้ามานี้ ส่งผลให้เจ้าเมืองในขอบขัณฑสีมาของราชอาณาจักรอยุธยาข้างฝ่ายเหนือประหวั่น พรั่นพรึงถึงกับสมคบคิดกันแปรพักตร์เข้าสมานสมัครพระเจ้านันทบุเรง เป็นเหตุให้สมเด็จพระนเรศวรต้องเผชิญทั้งศึกนอกและศึกในเมื่อศึกเหนือเสือใต้รุมกระหน่ำ ขุนนางผู้ใหญ่ขาดสามัคคีคิดคดคำนึงแต่ประโยชน์ส่วนตนและพวกพ้อง จอมทัพผู้รั้งราชบัลลังก์และความอยู่รอดของแผ่นดินก็มาพลาดท่าต้องศาสตรากลางสมรภูมิศึก ยอดทหารเอกกรุงศรีถูกขุนศึกผู้ชาญณรงค์กว่าจับเป็นเชลย ชะตากรรมกรุงศรีอยุธยา และสมเด็จพระนเรศวรจะลงเอยอย่างไร

Complete name : [MINI-HD]_King.Naresuan.4.2011.1080p.AC3.x264.One2loadup.com.mkv
Format : Matroska
Format version : Version 4
File size : 2.77 GiB
Duration : 2 h 11 min
Overall bit rate : 3 024 kb/s
Movie name : [MINI-HD]_King.Naresuan.4.2011.1080p.AC3.x264.One2loadup.com
Encoded date : UTC 2014-05-12 00:21:07
Writing application : mkvmerge v6.8.0 (‘Theme for Great Cities’) 32bit built on Mar 2 2014 21:27:07
Writing library : libebml v1.3.0 + libmatroska v1.4.1

Video
ID : 1
Format : AVC
Format/Info : Advanced Video Codec
Format profile : [email protected]
Format settings : CABAC / 3 Ref Frames
Format settings, CABAC : Yes
Format settings, ReFrames : 3 frames
Codec ID : V_MPEG4/ISO/AVC
Duration : 2 h 11 min
Bit rate : 2 500 kb/s
Width : 1 920 pixels
Height : 1 080 pixels
Display aspect ratio : 16:9
Frame rate mode : Constant
Frame rate : 25.000 FPS
Color space : YUV
Chroma subsampling : 4:2:0
Bit depth : 8 bits
Scan type : Progressive
Bits/(Pixel*Frame) : 0.048
Stream size : 2.25 GiB (81%)
Title : [MINI-HD]_King.Naresuan.4.2011.1080p.AC3.x264.One2loadup.com
Writing library : x264 core 116 r2019M 9cc407d
Encoding settings : cabac=1 / ref=3 / deblock=1:0:0 / analyse=0x3:0x133 / me=hex / subme=7 / psy=1 / psy_rd=1.00:0.20 / mixed_ref=1 / me_range=16 / chroma_me=1 / trellis=1 / 8x8dct=1 / cqm=0 / deadzone=21,11 / fast_pskip=1 / chroma_qp_offset=-3 / threads=8 / sliced_threads=0 / nr=0 / decimate=1 / interlaced=0 / bluray_compat=0 / constrained_intra=0 / bframes=3 / b_pyramid=1 / b_adapt=2 / b_bias=0 / direct=3 / weightb=1 / open_gop=0 / weightp=2 / keyint=250 / keyint_min=25 / scenecut=40 / intra_refresh=0 / rc_lookahead=40 / rc=abr / mbtree=1 / bitrate=2500 / ratetol=1.0 / qcomp=0.60 / qpmin=10 / qpmax=51 / qpstep=4 / vbv_maxrate=31250 / vbv_bufsize=62500 / nal_hrd=none / ip_ratio=1.40 / aq=1:1.00
Language : Thai
Default : Yes
Forced : No

Audio #1
ID : 2
Format : AC-3
Format/Info : Audio Coding 3
Commercial name : Dolby Digital
Codec ID : A_AC3
Duration : 2 h 11 min
Bit rate mode : Constant
Bit rate : 384 kb/s
Channel(s) : 6 channels
Channel layout : L R C LFE Ls Rs
Sampling rate : 48.0 kHz
Frame rate : 31.250 FPS (1536 SPF)
Bit depth : 16 bits
Compression mode : Lossy
Stream size : 360 MiB (13%)
Title : TH 5.1
Language : Thai
Service kind : Complete Main
Default : Yes
Forced : No

Audio #2
ID : 3
Format : AC-3
Format/Info : Audio Coding 3
Commercial name : Dolby Digital
Codec ID : A_AC3
Duration : 2 h 11 min
Bit rate mode : Constant
Bit rate : 128 kb/s
Channel(s) : 2 channels
Channel layout : L R
Sampling rate : 48.0 kHz
Frame rate : 31.250 FPS (1536 SPF)
Bit depth : 16 bits
Compression mode : Lossy
Stream size : 120 MiB (4%)
Title : TH การสนทนาเบื้องหลังการถ่ายทำ
Language : Thai
Service kind : Complete Main
Default : No
Forced : No

DOWNLOAD


PART01 |||| PART02 |||| PART03

PART01 |||| PART02 |||| PART03

PART01 |||| PART02 |||| PART03

PART01 |||| PART02 |||| PART03


Leave A Reply

Your email address will not be published.

%d bloggers like this: