เว็บโหลดหนัง HD MINI-HD SUPER-HQ Full-HD 1080p One2up VIP Master Zoom ซูม หนังใหม่ ออนไลน์ มาสเตอร์ ไทย จีน ฝรั่ง การ์ตูน

[MINI-HD] Kidnap (2017) ล่าหยุดนรก [1080p] [พากย์ไทยโรง + อังกฤษ 5.1] [ซับไทย + อังกฤษ] [ONE2UP]

0

โหลดหนัง  [MINI-HD] Kidnap (2017) ล่าหยุดนรก [1080p] [พากย์ไทยโรง + อังกฤษ 5.1] [ซับไทย + อังกฤษ] [ONE2UP]

Kidnap ล่าหยุดนรก ภาพยนตร์แนวระทึกขวัญ ผลงานล่าสุดของ ฮัลลี่ เบอร์ลี่ เรื่องราวของหญิงสาวผู้เป็นแม่ คาร์ล่า (ฮัลลี่ เบอร์รี) กับลูกชายสุดที่รักวัย 8 ขวบ แฟรงกี้ (เซจ คอร์เรีย) ที่ถูกจับตัวไปต่อหน้าต่อตา เรื่องราวดุเดือดยิ่งขึ้น เมื่อมีเด็กมากมายถูกลักพาตัว แต่ตำรวจไม่สามารถจับตัวคนร้ายได้ เธอจึงลงมือออกตามล่า เพื่อล่าตัวมัน ไปลงสู่ “นรก”

Complete name : [Mini-HD] Kidnap.2017.1080.WEB-DL.DD5.1.H264.One2loadup.com.mkv
Format : Matroska
Format version : Version 4 / Version 2
File size : 3.40 GiB
Duration : 1 h 35 min
Overall bit rate : 5 120 kb/s
Encoded date : UTC 2017-07-08 13:31:41
Writing application : mkvmerge v10.0.0 (‘To Drown In You’) 64bit
Writing library : libebml v1.3.4 + libmatroska v1.4.5

Video
ID : 1
Format : AVC
Format/Info : Advanced Video Codec
Format profile : [email protected]
Format settings, CABAC : Yes
Format settings, RefFrames : 5 frames
Codec ID : V_MPEG4/ISO/AVC
Duration : 1 h 35 min
Bit rate : 4 542 kb/s
Width : 1 916 pixels
Height : 796 pixels
Display aspect ratio : 2.40:1
Frame rate mode : Constant
Frame rate : 24.000 FPS
Color space : YUV
Chroma subsampling : 4:2:0
Bit depth : 8 bits
Scan type : Progressive
Bits/(Pixel*Frame) : 0.124
Stream size : 3.02 GiB (89%)
Title : [Mini-HD] Kidnap.2017.1080.WEB-DL.DD5.1.H264.One2loadup.com
Language : English
Default : Yes
Forced : No
Color range : Limited
Color primaries : BT.709
Transfer characteristics : BT.709
Matrix coefficients : BT.709

Audio #1
ID : 2
Format : AAC
Format/Info : Advanced Audio Codec
Format profile : LC
Codec ID : A_AAC
Duration : 1 h 35 min
Bit rate : 192 kb/s
Channel(s) : 2 channels
Channel positions : Front: L R
Sampling rate : 44.1 kHz
Frame rate : 43.066 FPS (1024 SPF)
Compression mode : Lossy
Stream size : 131 MiB (4%)
Title : AAC ThaiRong 2.0
Language : Thai
Default : Yes
Forced : No

Audio #2
ID : 3
Format : AC-3
Format/Info : Audio Coding 3
Format settings, Endianness : Big
Codec ID : A_AC3
Duration : 1 h 35 min
Bit rate mode : Constant
Bit rate : 384 kb/s
Channel(s) : 6 channels
Channel positions : Front: L C R, Side: L R, LFE
Sampling rate : 48.0 kHz
Frame rate : 31.250 FPS (1536 SPF)
Bit depth : 16 bits
Compression mode : Lossy
Stream size : 261 MiB (7%)
Title : AC-3 English 5.1
Language : English
Service kind : Complete Main
Default : No
Forced : No

Text #1
ID : 4
Format : UTF-8
Codec ID : S_TEXT/UTF8
Codec ID/Info : UTF-8 Plain Text
Duration : 1 h 27 min
Bit rate : 67 b/s
Count of elements : 635
Stream size : 43.5 KiB (0%)
Title : Sub Thai By ธนพร
Language : Thai
Default : Yes
Forced : No

Text #2
ID : 5
Format : UTF-8
Codec ID : S_TEXT/UTF8
Codec ID/Info : UTF-8 Plain Text
Duration : 1 h 27 min
Bit rate : 30 b/s
Count of elements : 635
Stream size : 19.7 KiB (0%)
Title : Sub English
Language : English
Default : No
Forced : No

Menu
00:00:00.000 : en:Opening
00:04:39.875 : en:Im Restaurant
00:09:26.290 : en:Auf in den Park
00:16:07.540 : en:Frankie?
00:25:46.080 : en:Der falsche Van
00:33:36.913 : en:Gestellt!
00:42:17.038 : en:Ruf die Polizei!
00:49:48.788 : en:Der Unfall
01:01:01.663 : en:Sackgasse
01:08:12.413 : en:Terry bist du da?
01:17:43.038 : en:Lucy und Libby
01:24:39.788 : en:Endlich Rettung

 

 




PART01 |||| PART02 |||| PART03 |||| PART04


PART01 |||| PART02 |||| PART03 |||| PART04


PART01 |||| PART02 |||| PART03 |||| PART04


Leave A Reply

Your email address will not be published.

%d bloggers like this: