โหลดหนัง HD MINI-HD SUPER-HQ Full-HD 1080p VIP Master Zoom ซูม หนังใหม่ ออนไลน์ มาสเตอร์ ไทย จีน ฝรั่ง การ์ตูน

[MINI-HD] Khun Pan 2 (2018) ขุนพันธ์ ภาค 2 [720p] [พากย์ไทย 5.1] [DVDRip] [เสียงไทย] [OPENLOAD]

1

Khun Pan 2 (2018) ขุนพันธ์ ภาค 2

โหลดหนัง Khun Pan 2 (2018) ขุนพันธ์ ภาค 2 

เรื่องย่อ Khun Pan 2 (2018) ขุนพันธ์ ภาค 2

ภายหลังจากที่ ขุนพันธ์ (อนันดา เอเวอริงแฮม) ปราบ อัลฮาวียะลู มหาโจรผู้เลื่องชื่อจากภาคใต้ ก็ได้มีโอกาสศึกษาและฝากตัวเป็นศิษย์กับเกจิอาจารย์ที่มีชื่อเสียงหลายๆสำนัก พร้อมกำราบโจรอีกหลายก๊กหลายเหล่า ท่านขุนถูกเรียกตัวมาประจำการในพื้นที่ภาคกลาง แต่ด้วยวิถีที่เขาเลือกเป็นกลับทำให้ต้องเผชิญกับอุปสรรค และความจริงที่ว่าผู้คนไม่ศรัทธาตำรวจ เลือกกฎหมู่แทนกฎหมาย ชาวบ้านลุกขึ้นมาเป็นโจร ข้าราชการล้วนหาผลประโยชน์ใส่ตัว ลูกน้อง-เพื่อนตำรวจถูกโจรร้ายฆ่า ตัวขุนพันธ์ทำอะไรไม่ได้แถมถูกให้พักราชการในเมื่อทำดีไม่ได้ดีทำให้ขุนพันธ์ตัดสินใจเข้าร่วมกลุ่มกับ เสือฝ้าย (พันเอก วันชนะ สวัสดี) หัวหน้าชุมโจรเชิ้ตดำที่ยิ่งใหญ่ที่สุดในภาคกลาง ซึ่งมีอาคมสะกดทุกสิ่งหยุดนิ่งและพละกำลังมหาศาล รวมถึงอำนาจและไพร่พลชนิดที่ว่าตำรวจยังต้องหวั่นเกรง โดยมีมือขวาคนสนิทคือ เสือใบ (อารักษ์ อมรศุภศิริ) ผู้มีวิชากระสุนคตและตะกรุดแคล้วคลาดบารมีของเสือฝ้ายและความภักดีของเสือใบปกครองและแผ่ขยายอาณาเขตไปทั่วสุพรรณบุรี, ชัยนาท, สิงห์บุรี และเขตภาคกลาง การเดินทางสู่ถ้ำเสือชุมโจรของขุนพันธ์ในนาม เสือบุตร์ จึงเริ่มต้นขึ้น พร้อมบทพิสูจน์ ใครว่าเสือ 3 ตัวอยู่ถ้ำเดียวกันไม่ได้

Complete name : [MINI-HD]_Khun.Pan.2.2018.720p.DVDRip.AC3.x264.One2loadup.com.mkv
Format : Matroska
Format version : Version 2
File size : 2.16 GiB
Duration : 2 h 5 min
Overall bit rate : 2 462 kb/s
Movie name : [MINI-HD]_Khun.Pan.2.2018.720p.DVDRip.AC3.x264.One2loadup.com
Writing application : HandBrake 0.9.9
Writing library : libmkv 0.6.5

Video
ID : 1
Format : AVC
Format/Info : Advanced Video Codec
Format profile : [email protected]
Format settings : CABAC / 4 Ref Frames
Format settings, CABAC : Yes
Format settings, ReFrames : 4 frames
Codec ID : V_MPEG4/ISO/AVC
Duration : 2 h 5 min
Bit rate : 2 002 kb/s
Width : 720 pixels
Height : 300 pixels
Display aspect ratio : 2.40:1
Frame rate mode : Constant
Frame rate : 25.000 FPS
Color space : YUV
Chroma subsampling : 4:2:0
Bit depth : 8 bits
Scan type : Progressive
Bits/(Pixel*Frame) : 0.371
Stream size : 1.73 GiB (80%)
Title : [MINI-HD]_Khun.Pan.2.2018.720p.DVDRip.AC3.x264.One2loadup.com
Writing library : x264 core 130 r2273 b3065e6
Encoding settings : cabac=1 / ref=3 / deblock=1:0:0 / analyse=0x3:0x113 / me=umh / subme=10 / psy=1 / psy_rd=1.00:0.00 / mixed_ref=1 / me_range=16 / chroma_me=1 / trellis=2 / 8x8dct=1 / cqm=0 / deadzone=21,11 / fast_pskip=1 / chroma_qp_offset=-2 / threads=10 / lookahead_threads=1 / sliced_threads=0 / nr=0 / decimate=1 / interlaced=0 / bluray_compat=0 / constrained_intra=0 / bframes=3 / b_pyramid=2 / b_adapt=1 / b_bias=0 / direct=1 / weightb=1 / open_gop=0 / weightp=2 / keyint=250 / keyint_min=25 / scenecut=40 / intra_refresh=0 / rc_lookahead=40 / rc=2pass / mbtree=1 / bitrate=2002 / ratetol=1.0 / qcomp=0.60 / qpmin=0 / qpmax=69 / qpstep=4 / cplxblur=20.0 / qblur=0.5 / ip_ratio=1.40 / aq=1:1.00
Language : English
Default : Yes
Forced : No
Color range : Limited
Color primaries : BT.601 PAL
Transfer characteristics : BT.709
Matrix coefficients : BT.601

Audio
ID : 2
Format : AC-3
Format/Info : Audio Coding 3
Commercial name : Dolby Digital
Codec ID : A_AC3
Duration : 2 h 5 min
Bit rate mode : Constant
Bit rate : 448 kb/s
Channel(s) : 6 channels
Channel layout : L R C LFE Ls Rs
Sampling rate : 48.0 kHz
Frame rate : 31.250 FPS (1536 SPF)
Bit depth : 16 bits
Compression mode : Lossy
Stream size : 403 MiB (18%)
Language : Thai
Service kind : Complete Main
Default : Yes
Forced : No

Menu
00:00:00.000 : Chapter 1
00:00:00.920 : Chapter 2
00:08:25.760 : Chapter 3
00:19:15.840 : Chapter 4
00:32:18.440 : Chapter 5
00:40:52.560 : Chapter 6
00:51:04.520 : Chapter 7
01:01:18.840 : Chapter 8
01:10:54.520 : Chapter 9
01:18:51.600 : Chapter 10
01:29:57.440 : Chapter 11
01:39:00.600 : Chapter 12
01:50:16.000 : Chapter 13
02:05:38.880 : Chapter 14

DOWNLOAD


PART01 |||| PART02 |||| PART03

PART01 |||| PART02 |||| PART03

PART01 |||| PART02 |||| PART03

PART01 |||| PART02 |||| PART03


1 Comment
  1. Boydm Lion
    Boydm Lion says

    ขอบคุณครับบ

Leave A Reply

Your email address will not be published.

%d bloggers like this: