โหลดหนัง HD MINI-HD SUPER-HQ Full-HD 1080p VIP Master Zoom ซูม หนังใหม่ ออนไลน์ มาสเตอร์ ไทย จีน ฝรั่ง การ์ตูน

[MINI-HD] John Carter (2012) นักรบสงครามข้ามจักรวาล [1080p] [พากย์ไทย 5.1 + อังกฤษ 5.1] [บรรยายไทย + อังกฤษ] [เสียงไทย + ซับไทย] [ONE2UP]

0

โหลดหนัง  John Carter (2012) นักรบสงครามข้ามจักรวาล

เรื่องย่อ John Carter (2012) นักรบสงครามข้ามจักรวาล

John Carter ดัดแปลงจาก นิยายคลาสสิคของ เอ็ดการ์ ไรซ์ เรื่อง A Princess of Mars กลายมาเป็นหนังแอ็คชั่นผจญภัยที่มีเรื่องราวเกิดขึ้น บนดาวเคราะห์ลึกลับชื่อ บาร์ซูม สถานที่ซึ่งมีสิ่งมีชีวิตแปลกตาทั้ง กลุ่มมนุษย์เผ่าตัวแดง-เฮเลียมไมท์-โซดันแกนส์-ธาร์คส์ และ เผ่าเธิร์ส จากเดิมที่เป็นดินแดนแสนอุดมสมบูรณ์ บัดนี้ได้กลายเป็นดวงดาวที่กำลังจะล่มสลายเหตุเพราะค วามขัดแย้งอันยาวกว่าหมื่นปี ระหว่างพวกโซดันแกนส์ ที่นำโดย แซบบ์ ธาน และ พวกเฮเลียมไมท์ ที่นำโดย เดจาห์ ธอริส (รับบทโดย ลินน์ คอลลินน์) เจ้าหญิงนักรบผู้เลอโฉม ซึ่งจอห์น คาร์เตอร์ (รับบทโดย เทย์เลอร์ คิตซ์) อดีตนายทหารผ่านศึกผู้เบื่อหน่ายสงสรามได้ถูกส่งตัวม าที่นี่อย่างไม่คาดฝัน

Complete name : [MINI-HD]_John.Carter.2012.1080p.AC3.x264.One2loadup.com.mkv
Format : Matroska
Format version : Version 4 / Version 2
File size : 3.60 GiB
Duration : 2 h 12 min
Overall bit rate : 3 905 kb/s
Movie name : [MINI-HD]_John.Carter.2012.1080p.AC3.x264.One2loadup.com
Encoded date : UTC 2014-05-31 22:16:29
Writing application : mkvmerge v6.5.0 (‘Isn’t she lovely’) built on Oct 20 2013 12:50:05
Writing library : libebml v1.3.0 + libmatroska v1.4.1

Video
ID : 1
Format : AVC
Format/Info : Advanced Video Codec
Format profile : [email protected]
Format settings, CABAC : Yes
Format settings, RefFrames : 5 frames
Codec ID : V_MPEG4/ISO/AVC
Duration : 2 h 12 min
Bit rate : 3 000 kb/s
Width : 1 920 pixels
Height : 800 pixels
Display aspect ratio : 2.40:1
Frame rate mode : Constant
Frame rate : 23.976 (24000/1001) FPS
Color space : YUV
Chroma subsampling : 4:2:0
Bit depth : 8 bits
Scan type : Progressive
Bits/(Pixel*Frame) : 0.081
Stream size : 2.70 GiB (75%)
Title : [MINI-HD]_John.Carter.2012.1080p.AC3.x264.One2loadup.com
Writing library : x264 core 130 r2273 b3065e6
Encoding settings : cabac=1 / ref=5 / deblock=1:1:1 / analyse=0x3:0x113 / me=hex / subme=10 / psy=1 / psy_rd=2.00:1.00 / mixed_ref=1 / me_range=16 / chroma_me=1 / trellis=2 / 8x8dct=1 / cqm=0 / deadzone=21,11 / fast_pskip=1 / chroma_qp_offset=-4 / threads=6 / lookahead_threads=1 / sliced_threads=0 / nr=0 / decimate=0 / interlaced=0 / bluray_compat=0 / constrained_intra=0 / bframes=16 / b_pyramid=2 / b_adapt=1 / b_bias=0 / direct=1 / weightb=1 / open_gop=0 / weightp=2 / keyint=240 / keyint_min=24 / scenecut=40 / intra_refresh=0 / rc_lookahead=40 / rc=2pass / mbtree=1 / bitrate=3000 / ratetol=1.0 / qcomp=0.60 / qpmin=0 / qpmax=69 / qpstep=4 / cplxblur=20.0 / qblur=0.5 / vbv_maxrate=62500 / vbv_bufsize=78125 / nal_hrd=none / ip_ratio=1.40 / aq=1:2.00
Language : English
Default : Yes
Forced : No
Color range : Limited
Color primaries : BT.709
Transfer characteristics : BT.709
Matrix coefficients : BT.709

Audio #1
ID : 2
Format : AC-3
Format/Info : Audio Coding 3
Format settings, Endianness : Big
Codec ID : A_AC3
Duration : 2 h 12 min
Bit rate mode : Constant
Bit rate : 448 kb/s
Channel(s) : 6 channels
Channel positions : Front: L C R, Side: L R, LFE
Sampling rate : 48.0 kHz
Frame rate : 31.250 FPS (1536 SPF)
Bit depth : 16 bits
Compression mode : Lossy
Stream size : 423 MiB (11%)
Title : Thai 5.1
Language : Thai
Service kind : Complete Main
Default : Yes
Forced : No

Audio #2
ID : 3
Format : AC-3
Format/Info : Audio Coding 3
Format settings, Endianness : Big
Codec ID : A_AC3
Duration : 2 h 12 min
Bit rate mode : Constant
Bit rate : 448 kb/s
Channel(s) : 6 channels
Channel positions : Front: L C R, Side: L R, LFE
Sampling rate : 48.0 kHz
Frame rate : 31.250 FPS (1536 SPF)
Bit depth : 16 bits
Compression mode : Lossy
Stream size : 423 MiB (11%)
Title : English 5.1
Service kind : Complete Main
Default : No
Forced : No

Text #1
ID : 4
Format : VobSub
Muxing mode : zlib
Codec ID : S_VOBSUB
Codec ID/Info : Picture based subtitle format used on DVDs
Title : Thai From DVD Master
Language : Thai
Default : Yes
Forced : No

Text #2
ID : 5
Format : VobSub
Muxing mode : zlib
Codec ID : S_VOBSUB
Codec ID/Info : Picture based subtitle format used on DVDs
Title : Thai 480p
Language : Thai
Default : No
Forced : No

Text #3
ID : 6
Format : VobSub
Muxing mode : zlib
Codec ID : S_VOBSUB
Codec ID/Info : Picture based subtitle format used on DVDs
Title : Thai 480p
Language : Thai
Default : No
Forced : No

Text #4
ID : 7
Format : VobSub
Muxing mode : zlib
Codec ID : S_VOBSUB
Codec ID/Info : Picture based subtitle format used on DVDs
Title : Thai 1080p
Language : Thai
Default : No
Forced : No

Text #5
ID : 8
Format : UTF-8
Codec ID : S_TEXT/UTF8
Codec ID/Info : UTF-8 Plain Text
Title : Eng SRT
Language : English
Default : No
Forced : No


PART01 |||| PART02 |||| PART03 |||| PART04

PART01 |||| PART02 |||| PART03 |||| PART04

PART01 |||| PART02 |||| PART03 |||| PART04

PART01 |||| PART02 |||| PART03 |||| PART04


Leave A Reply

Your email address will not be published.

%d bloggers like this: