[MINI-HD] How to Train Your Dragon 2 (2014) อภินิหารไวกิ้งพิชิตมังกร 2 [1080p] [พากย์ไทย 5.1 + อังกฤษ DTS] [บรรยายไทย + อังกฤษ] [ซับไทย + อังกฤษ] [OPENLOAD]

6

โหลดหนัง  How to Train Your Dragon 2 (2014) อภินิหารไวกิ้งพิชิตมังกร 2

เรื่องย่อ How to Train Your Dragon 2 (2014) อภินิหารไวกิ้งพิชิตมังกร 2

จะพาคุณกลับไปสู่โลกการผจญภัยของฮิคคัพและเจ้ามังกรที่น่ารักทูธเลสอีกครั้ง โดยเป็นเรื่องต่อจากภาคที่แล้วในอีก 5 ปีข้างหน้า เมื่อ แอสทริด, สนอทเลาท์ และคนอื่น ๆ กำลังฝึกฝนตัวเองเพื่อแข่งในกีฬาใหม่สุดฮิตของเมือง ซึ่งก็คือการใช้มังกรประชันความเร็วกันนั่นเอง ทำให้พวกเขาพาคู่หูของตัวเองโลดแล่นผาดโผนไปตามที่ต่าง ๆ เพื่อฝึกฝนรวมไปถึงที่ใหม่ ๆ ที่ไม่เคยเหยียบย่างมาก่อนด้วย จนกระทั่งวันหนึ่งดันเข้าไปพบกับถ้ำน้ำแข็งลับโดยไม่ได้ตั้งใจ ซึ่งในนั้นพวกเขาได้พบกับมังกรเกิดใหม่มากมายและผู้ใช้มังกรปริศนา ทำให้พวกเขาจำเป็นต้องต่อสู้เพื่อรักษาความสงบของเมืองเอาไว้

Complete name : [MINI-HD]_How.To.Train.Your.Dragon.2.2014.1080p.BluRip.DTS.x264.One2loadup.com.mkv
Format : Matroska
Format version : Version 4 / Version 2
File size : 4.71 GiB
Duration : 1 h 41 min
Overall bit rate : 6 611 kb/s
Encoded date : UTC 2016-10-30 05:50:03 / UTC 2016-10-30T04:42:48Z
Writing application : mkvmerge v8.3.0 (‘Over the Horizon’) 64bit
Writing library : libebml v1.3.1 + libmatroska v1.4.2 / Lavf55.12.0

Video
ID : 1
Format : AVC
Format/Info : Advanced Video Codec
Format profile : [email protected]
Format settings, CABAC : Yes
Format settings, RefFrames : 4 frames
Codec ID : V_MPEG4/ISO/AVC
Duration : 1 h 41 min
Bit rate : 4 522 kb/s
Width : 1 920 pixels
Height : 818 pixels
Display aspect ratio : 2.35:1
Original display aspect rat : 2.35:1
Frame rate mode : Constant
Frame rate : 23.976 (24000/1001) FPS
Color space : YUV
Chroma subsampling : 4:2:0
Bit depth : 8 bits
Scan type : Progressive
Bits/(Pixel*Frame) : 0.120
Stream size : 3.22 GiB (68%)
Writing library : x264 core 142 r2479 dd79a61
Encoding settings : cabac=1 / ref=1 / deblock=1:0:0 / analyse=0x1:0x111 / me=hex / subme=2 / psy=1 / psy_rd=1.00:0.00 / mixed_ref=0 / me_range=16 / chroma_me=1 / trellis=0 / 8x8dct=0 / cqm=0 / deadzone=21,11 / fast_pskip=1 / chroma_qp_offset=0 / threads=6 / lookahead_threads=2 / sliced_threads=0 / nr=0 / decimate=1 / interlaced=0 / bluray_compat=0 / constrained_intra=0 / bframes=3 / b_pyramid=2 / b_adapt=1 / b_bias=0 / direct=1 / weightb=1 / open_gop=0 / weightp=1 / keyint=240 / keyint_min=24 / scenecut=40 / intra_refresh=0 / rc_lookahead=10 / rc=crf / mbtree=1 / crf=20.0 / qcomp=0.60 / qpmin=0 / qpmax=69 / qpstep=4 / vbv_maxrate=20000 / vbv_bufsize=25000 / crf_max=0.0 / nal_hrd=none / filler=0 / ip_ratio=1.40 / aq=1:1.00
Language : Thai
Default : Yes
Forced : Yes
Color range : Limited
Color primaries : BT.709
Transfer characteristics : BT.709
Matrix coefficients : BT.709
Statistics Tags Issue : mkvmerge v8.3.0 (‘Over the Horizon’) 64bit 2016-10-30 05:50:03 / mkvmerge v8.3.0 (‘Over the Horizon’) 64bit 2016-10-30 05:50:03 / UTC 2016-10-30T04:42:48Z
FromStats_BitRate : 4635633
FromStats_Duration : 01:41:55.127000000
FromStats_FrameCount : 146616
FromStats_StreamSize : 3543436226

Audio #1
ID : 2
Format : DTS
Format/Info : Digital Theater Systems
Format profile : ES Matrix / Core
Mode : 16
Format settings, Endianness : Big
Codec ID : A_DTS
Duration : 1 h 41 min
Bit rate mode : Constant
Bit rate : 1 509 kb/s
Channel(s) : 7 channels / 6 channels
Channel positions : Front: L C R, Side: L R, Back: C, LFE / Front: L C R, Side: L R, LFE
Sampling rate : 48.0 kHz
Frame rate : 93.750 FPS (512 SPF)
Bit depth : 24 bits
Compression mode : Lossy
Stream size : 1.07 GiB (23%)
Title : Surround
Language : English
Default : No
Forced : No
Statistics Tags Issue : mkvmerge v8.3.0 (‘Over the Horizon’) 64bit 2016-10-30 05:50:03 / mkvmerge v8.3.0 (‘Over the Horizon’) 64bit 2016-10-30 05:50:03 / UTC 2016-10-30T04:42:48Z
FromStats_BitRate : 1509000
FromStats_Duration : 01:41:55.104000000
FromStats_FrameCount : 573291
FromStats_StreamSize : 1153461492

Audio #2
ID : 3
Format : AC-3
Format/Info : Audio Coding 3
Format settings, Endianness : Big
Codec ID : A_AC3
Duration : 1 h 41 min
Bit rate mode : Constant
Bit rate : 448 kb/s
Channel(s) : 6 channels
Channel positions : Front: L C R, Side: L R, LFE
Sampling rate : 48.0 kHz
Frame rate : 31.250 FPS (1536 SPF)
Bit depth : 16 bits
Compression mode : Lossy
Stream size : 327 MiB (7%)
Title : Surround
Language : Thai
Service kind : Complete Main
Default : Yes
Forced : Yes
Statistics Tags Issue : mkvmerge v8.3.0 (‘Over the Horizon’) 64bit 2016-10-30 05:50:03 / mkvmerge v8.3.0 (‘Over the Horizon’) 64bit 2016-10-30 05:50:03 / UTC 2016-10-30T04:42:48Z
FromStats_BitRate : 448000
FromStats_Duration : 01:41:55.136000000
FromStats_FrameCount : 191098
FromStats_StreamSize : 342447616

Text #1
ID : 4
Format : PGS
Muxing mode : zlib
Codec ID : S_HDMV/PGS
Codec ID/Info : Picture based subtitle format used on BDs/HD-DVDs
Language : English
Default : No
Forced : No
Statistics Tags Issue : mkvmerge v8.3.0 (‘Over the Horizon’) 64bit 2016-10-30 05:50:03 / mkvmerge v8.3.0 (‘Over the Horizon’) 64bit 2016-10-30 05:50:03 / UTC 2016-10-30T04:42:48Z
FromStats_BitRate : 9570
FromStats_Duration : 01:31:07.253000000
FromStats_FrameCount : 2288
FromStats_StreamSize : 6540610

Text #2
ID : 5
Format : PGS
Muxing mode : zlib
Codec ID : S_HDMV/PGS
Codec ID/Info : Picture based subtitle format used on BDs/HD-DVDs
Language : Thai
Default : Yes
Forced : Yes
Statistics Tags Issue : mkvmerge v8.3.0 (‘Over the Horizon’) 64bit 2016-10-30 05:50:03 / mkvmerge v8.3.0 (‘Over the Horizon’) 64bit 2016-10-30 05:50:03 / UTC 2016-10-30T04:42:48Z
FromStats_BitRate : 6844
FromStats_Duration : 01:40:28.939000000
FromStats_FrameCount : 2292
FromStats_StreamSize : 5158306

Menu
00:00:00.000 : :Chapter 1
00:04:59.566 : :Chapter 2
00:09:59.783 : :Chapter 3
00:14:59.541 : :Chapter 4
00:19:59.090 : :Chapter 5
00:24:59.515 : :Chapter 6
00:29:59.690 : :Chapter 7
00:35:00.073 : :Chapter 8
00:39:59.790 : :Chapter 9
00:44:59.923 : :Chapter 10
00:49:59.722 : :Chapter 11
00:55:00.064 : :Chapter 12
00:59:59.947 : :Chapter 13
01:04:59.913 : :Chapter 14
01:09:59.254 : :Chapter 15
01:15:00.013 : :Chapter 16
01:19:59.854 : :Chapter 17
01:24:59.236 : :Chapter 18
01:29:59.786 : :Chapter 19
01:35:00.045 : :Chapter 20

 

DOWNLOAD


PART01 |||| PART02 |||| PART03 |||| PART04 |||| PART05

PART01 |||| PART02 |||| PART03 |||| PART04 |||| PART05

PART01 |||| PART02 |||| PART03 |||| PART04 |||| PART05

PART01 |||| PART02 |||| PART03 |||| PART04 |||| PART05


6 Comments
  1. piyaphongk says

    ไฟล์เปิดไม่ขึ้นภาพ มีแต่เสียงครับ

    1. Admin
      Admin says

      แนะนำให้เปลี่ยนโปรแกรมในการดูฮ๊ะ

  2. Panitan Muenduang
    Panitan Muenduang says

    โหลดไม่ได้อ่ะคับ
    อัพไฟล์ใหม่ให้หน่อยได้ไหมคับ

    1. Admin
      Admin says

      นี่ก็ทดสอบแล้วก็โหลดได้ปกตินิ แนะนำให้แจ้งด้วยว่า server ไหนโหลดไม่ได้ เพราะ เชิฟเวอร์ แรก ก็โหลดได้ปกติ

  3. Worasatri
    Worasatri says

    เข้าไม่ได้ซักเสิร์ฟเลยค่ะแอดมิน
    ERR_CONNECTION_RESET ตลอดดด

    1. Admin
      Admin says

      คืออะไรหว่า ก็โหลดได้ปกตินิ

Leave A Reply

Your email address will not be published.

%d bloggers like this: