โหลดหนัง HD MINI-HD SUPER-HQ Full-HD 1080p VIP Master Zoom ซูม หนังใหม่ ออนไลน์ มาสเตอร์ ไทย จีน ฝรั่ง การ์ตูน

[Mini-HD] Grown Ups 2 (2013) ขาใหญ่ วัยกลับ ภาค 2 [720p] [พากย์ไทย 5.1 + เสียงอังกฤษ 5.1] [บรรยายไทย +อังกฤษ] [เสียงไทย + ซับไทย] [OPENLOAD]

Grown Ups 2 (2013) ขาใหญ่ วัยกลับ ภาค 2

โหลดหนัง Grown Ups 2 (2013) ขาใหญ่ วัยกลับ ภาค 2

เรื่องย่อ Grown Ups 2 (2013) ขาใหญ่ วัยกลับ ภาค 2

Grown Ups 2 ภาคต่อของ Grown Ups ในปี 2010 ที่ว่าด้วยเรื่องวุ่น ๆ ของ 4 สหายที่ต้องกลับมาร่วมก๊วนกันอีก 3 ปีหลังภาคแรก เมื่อ เลนนี่ เฟเดอร์ หัวโจกที่แสดงโดย อดัม แซนด์เลอร์ ต้องย้ายครอบครัวกลับไปอยู่เมืองเล็ก ๆ ที่เขากับเพื่อนร่วมก๊วนเติบโตมา
Grown Ups 2…..ขาใหญ่ วัยกลับ 2 การกลับมาอีกครั้งของหนังฮารั่วของ อดัม แซนเดอร์, เควิน เจมส์, เดวิด สเปด และ คริส ร็อค ที่เล่าเรื่องราวของกลุ่มเพื่อนซี้ เลนนี่, อีริค, เคิร์ต และ มาร์คัส เป็นคอมเมดี้สุดฮา เกี่ยวกับก๊วนหนุ่ม ๆ สุดเฮี้ยว ที่เป็นเพื่อนซี้กันสมัยเด็ก กับการรวมตัวกันครั้งแรกในรอบสามสิบปีหลังจากห่างหาย กันไป เพื่อกลับมาใช้เวลาด้วยกัน แต่ครั้งนี้ไม่ได้มีแต่หนุ่มโสดเท่านั้น เพราะมีครอบครัวทั้งลูก ๆ สุดป่วนและภรรยาสุดจี๊ดพ่วงมาด้วยการรวมตัวกันในครั้งนี้ทำให้พวกเขาได้ต่อติดมิตรภาพแ บบเพื่อนซี้อีกครั้ง ความสนุกและความน่าประหลาดใจมันอยู่ที่การรียูเนี่ยน ครั้งนี้ ทำให้ห้าหนุ่มสุดเหี้ยวรู้สึกว่า การมีอายุมากขึ้นก็ไม่ได้หมายความว่าพวกเขาจะโตขึ้นซักหน่อยวีรกรรมแบบ ฮา ป่วน จี๊ด จึงเริ่มขึ้นอีกครั้งใน Grown Ups 2

Complete name : [MINI-HD]_Grown.Ups.2.2013.720p.BrRip.AC3.x264.One2loadup.com.mkv
Format : Matroska
Format version : Version 4
File size : 2.67 GiB
Duration : 1 h 40 min
Overall bit rate : 3 786 kb/s
Movie name : [MINI-HD]_Grown.Ups.2.2013.720p.BrRip.AC3.x264.One2loadup.com
Encoded date : UTC 2013-12-12 07:15:07
Writing application : mkvmerge v6.6.0 (‘The Edge Of The In Between’) built on Dec 1 2013 17:55:00
Writing library : libebml v1.3.0 + libmatroska v1.4.1

Video
ID : 1
Format : AVC
Format/Info : Advanced Video Codec
Format profile : [email protected]
Format settings : CABAC / 8 Ref Frames
Format settings, CABAC : Yes
Format settings, ReFrames : 8 frames
Codec ID : V_MPEG4/ISO/AVC
Duration : 1 h 40 min
Bit rate : 2 653 kb/s
Width : 1 280 pixels
Height : 688 pixels
Display aspect ratio : 1.85:1
Frame rate mode : Constant
Frame rate : 23.976 FPS
Color space : YUV
Chroma subsampling : 4:2:0
Bit depth : 8 bits
Scan type : Progressive
Bits/(Pixel*Frame) : 0.126
Stream size : 1.85 GiB (69%)
Title : [MINI-HD]_Grown.Ups.2.2013.720p.BrRip.AC3.x264.One2loadup.com
Writing library : x264 core 125 r2200 999b753
Encoding settings : cabac=1 / ref=8 / deblock=1:1:0 / analyse=0x3:0x133 / me=umh / subme=9 / psy=1 / psy_rd=1.00:0.15 / mixed_ref=1 / me_range=16 / chroma_me=1 / trellis=2 / 8x8dct=1 / cqm=0 / deadzone=21,11 / fast_pskip=1 / chroma_qp_offset=-1 / threads=12 / lookahead_threads=2 / sliced_threads=0 / nr=1 / decimate=1 / interlaced=0 / bluray_compat=0 / constrained_intra=0 / bframes=3 / b_pyramid=2 / b_adapt=2 / b_bias=0 / direct=3 / weightb=1 / open_gop=0 / weightp=2 / keyint=250 / keyint_min=23 / scenecut=40 / intra_refresh=0 / rc_lookahead=60 / rc=2pass / mbtree=1 / bitrate=2653 / ratetol=1.0 / qcomp=0.60 / qpmin=0 / qpmax=69 / qpstep=4 / cplxblur=20.0 / qblur=0.5 / ip_ratio=1.40 / aq=1:1.10
Language : English
Default : Yes
Forced : Yes

Audio #1
ID : 2
Format : AC-3
Format/Info : Audio Coding 3
Commercial name : Dolby Digital
Codec ID : A_AC3
Duration : 1 h 40 min
Bit rate mode : Constant
Bit rate : 640 kb/s
Channel(s) : 6 channels
Channel layout : L R C LFE Ls Rs
Sampling rate : 48.0 kHz
Frame rate : 31.250 FPS (1536 SPF)
Bit depth : 16 bits
Compression mode : Lossy
Stream size : 462 MiB (17%)
Title : Thai AC-3 5.1at 640 Kbps BluRay Master
Language : Thai
Service kind : Complete Main
Default : Yes
Forced : Yes

Audio #2
ID : 3
Format : AC-3
Format/Info : Audio Coding 3
Commercial name : Dolby Digital
Codec ID : A_AC3
Duration : 1 h 40 min
Bit rate mode : Constant
Bit rate : 448 kb/s
Channel(s) : 6 channels
Channel layout : L R C LFE Ls Rs
Sampling rate : 48.0 kHz
Frame rate : 31.250 FPS (1536 SPF)
Bit depth : 16 bits
Compression mode : Lossy
Stream size : 324 MiB (12%)
Title : English AC-3 5.1 at 640 Kbps
Language : English
Service kind : Complete Main
Default : No
Forced : No

Text #1
ID : 4
Format : VobSub
Muxing mode : zlib
Codec ID : S_VOBSUB
Codec ID/Info : Picture based subtitle format used on DVDs
Title : Thai 480p From BluRay Master
Language : Thai
Default : No
Forced : No

Text #2
ID : 5
Format : VobSub
Muxing mode : zlib
Codec ID : S_VOBSUB
Codec ID/Info : Picture based subtitle format used on DVDs
Title : Thai 720p From BluRay Master
Language : Thai
Default : No
Forced : No

Text #3
ID : 6
Format : VobSub
Muxing mode : zlib
Codec ID : S_VOBSUB
Codec ID/Info : Picture based subtitle format used on DVDs
Title : Thai 1080p BluRay Master
Language : Thai
Default : Yes
Forced : Yes

Text #4
ID : 7
Format : VobSub
Muxing mode : zlib
Codec ID : S_VOBSUB
Codec ID/Info : Picture based subtitle format used on DVDs
Title : Thai 1080p BluRay Master [BIG]
Language : Thai
Default : No
Forced : No

Text #5
ID : 8
Format : PGS
Muxing mode : zlib
Codec ID : S_HDMV/PGS
Codec ID/Info : Picture based subtitle format used on BDs/HD-DVDs
Title : Thai PGS BluRay Master
Language : Thai
Default : No
Forced : No

Text #6
ID : 9
Format : VobSub
Muxing mode : zlib
Codec ID : S_VOBSUB
Codec ID/Info : Picture based subtitle format used on DVDs
Title : English 1080p BluRay Master
Language : English
Default : No
Forced : No

Text #7
ID : 10
Format : UTF-8
Codec ID : S_TEXT/UTF8
Codec ID/Info : UTF-8 Plain Text
Title : English SRT
Language : English
Default : No
Forced : No

Menu
00:00:00.000 : en:00:00:00.000
00:04:30.937 : en:00:04:30.937
00:12:02.555 : en:00:12:02.555
00:18:14.677 : en:00:18:14.677
00:25:34.158 : en:00:25:34.158
00:29:47.661 : en:00:29:47.661
00:37:02.387 : en:00:37:02.387
00:45:15.713 : en:00:45:15.713
00:48:53.430 : en:00:48:53.430
00:54:22.593 : en:00:54:22.593
01:00:49.938 : en:01:00:49.938
01:05:15.662 : en:01:05:15.662
01:10:52.415 : en:01:10:52.415
01:16:49.355 : en:01:16:49.355
01:23:26.793 : en:01:23:26.793
01:31:02.666 : en:01:31:02.666

DOWNLOAD


PART01 |||| PART02 |||| PART03

PART01 |||| PART02 |||| PART03

PART01 |||| PART02 |||| PART03

PART01 |||| PART02 |||| PART03


Leave A Reply

Your email address will not be published.

%d bloggers like this: