โหลดหนัง HD MINI-HD SUPER-HQ Full-HD 1080p VIP Master Zoom ซูม หนังใหม่ ออนไลน์ มาสเตอร์ ไทย จีน ฝรั่ง การ์ตูน

[MINI-HD] Green Lantern (2011) กรีน แลนเทิร์น [720p] [พากย์ไทย 5.1 + เสียงอังกฤษ 5.1] [Blu-ray.AC-3.x264] [บรรยายไทย + อังกฤษ] [เสียงไทย + ซับไทย] [Modified] [ONE2UP]

0

โหลดหนัง  Green Lantern (2011) กรีน แลนเทิร์น

เรื่องย่อ Green Lantern (2011) กรีน แลนเทิร์น

ในจักรวาลที่ลึกลับและกว้างใหญ่ไพศาลแต่ว่าก็ยังมีสิ่งมีชีวิตเล็กๆ แต่ว่าทรงพลังอาศัยอยู่มาเป็นเวลานานนับศตวรรษแล้ว ผู้ซึ่งทำหน้าที่รักษาสันติภาพและความยุติธรรมที่เรียกว่ากลุ่มองค์กร “กรีน แลนเทิร์น” (Green Lantern) เหล่าพี่น้องนักรบที่ร่วมสาบานกันว่าจะดูแลรักษากาแล็คซี่ นักรบ“กรีน แลนเทิร์น”แต่ละคนจะสวมแหวนที่ให้พลังอำนาจมหาศาลแก่พวกเขา แต่แล้วเมื่อมีศัตรูที่ชื่อว่า“Parallax”ผู้ที่ต้องการทำลายสมดุลของพลังแห่งจักรวาลเกิดขึ้นมา ชะตากรรมของพวกเขาและชะตากรรมของโลกจึงต้องขึ้นอยู่กับผู้ที่ได้รับเลือกคนใหม่ มนุษย์คนแรกที่ถูกเลือกให้เป็นหนึ่งใน “กรีน แลนเทิร์น” ที่มีนามว่า ฮาล จอร์แดน Hal Jordan (แสดงโดย ไรอัน เรย์โนลด์) “ฮาล จอร์แดน” เป็นนักบินทดสอบผู้มีพรสวรรค์และหยิ่งยโส แต่ว่า“กรีน แลนเทิร์น”ก็ยังมีความเคารพและความเชื่อมั่นเล็กๆ ในมนุษย์ผู้ซึ่งไม่เคยใช้พลังอันไม่มีขอบเขตของแหวนนี้มาก่อน เขาคือบุคคลที่ใช่อย่างแน่นอนเขามีบางอย่างที่ผู้อื่นในองค์กรไม่มี และเขายังมีกำลังใจจากเพื่อนๆนักบินและหวานใจ แคโรล เฟอริส Carol Ferris (แสดงโดย เบล็ค ไลฟ์ลี่ย์) อีกด้วย ยิ่งเขาค้นพบพลังที่ซ่อนอยู่ของเขาและเอาชนะความกลัวของตัวเองได้เร็วเท่าไหร่ ไม่เพียงแต่จะสามารถจัดการกับ “Parallax” ได้เท่านั้นแต่จะทำให้เขากลายเป็นนักรบ “กรีน แลนเทิร์น” ที่ยิ่งใหญ่ตลอดกาล

Complete name : [MINI-HD]_Green.Lantern.2011.Extended.BluRay.720p.One2loadup.com.mkv
Format : Matroska
Format version : Version 2
File size : 3.40 GiB
Duration : 2 h 3 min
Overall bit rate : 3 935 kb/s
Encoded date : UTC 2011-10-23 04:08:57
Writing application : mkvmerge v3.4.0 (‘Rapunzel’) built on May 15 2010 09:38:20
Writing library : libebml v0.8.0 + libmatroska v0.9.0

Video
ID : 1
Format : AVC
Format/Info : Advanced Video Codec
Format profile : [email protected]
Format settings, CABAC : Yes
Format settings, RefFrames : 5 frames
Codec ID : V_MPEG4/ISO/AVC
Duration : 2 h 3 min
Bit rate : 3 033 kb/s
Width : 1 280 pixels
Height : 544 pixels
Display aspect ratio : 2.35:1
Frame rate mode : Constant
Frame rate : 23.976 (24000/1001) FPS
Color space : YUV
Chroma subsampling : 4:2:0
Bit depth : 8 bits
Scan type : Progressive
Bits/(Pixel*Frame) : 0.182
Stream size : 2.56 GiB (75%)
Title : [MINI-HD]_Green.Lantern.2011.Extended.BluRay.720p.One2loadup.com
Writing library : x264 core 118 r2085 8a62835
Encoding settings : cabac=1 / ref=5 / deblock=1:-1:-1 / analyse=0x3:0x113 / me=hex / subme=7 / psy=1 / psy_rd=1.00:0.80 / mixed_ref=1 / me_range=16 / chroma_me=1 / trellis=1 / 8x8dct=1 / cqm=0 / deadzone=21,11 / fast_pskip=1 / chroma_qp_offset=-4 / threads=6 / sliced_threads=0 / nr=0 / decimate=0 / interlaced=0 / bluray_compat=0 / constrained_intra=0 / bframes=3 / b_pyramid=2 / b_adapt=1 / b_bias=0 / direct=1 / weightb=1 / open_gop=0 / weightp=2 / keyint=250 / keyint_min=23 / scenecut=40 / intra_refresh=0 / rc_lookahead=40 / rc=2pass / mbtree=1 / bitrate=3033 / ratetol=1.0 / qcomp=0.60 / qpmin=10 / qpmax=51 / qpstep=4 / cplxblur=20.0 / qblur=0.5 / vbv_maxrate=50000 / vbv_bufsize=50000 / nal_hrd=none / ip_ratio=1.40 / aq=1:1.00
Language : English
Default : Yes
Forced : Yes

Audio #1
ID : 2
Format : AC-3
Format/Info : Audio Coding 3
Format settings, Endianness : Big
Codec ID : A_AC3
Duration : 2 h 3 min
Bit rate mode : Constant
Bit rate : 448 kb/s
Channel(s) : 6 channels
Channel positions : Front: L C R, Side: L R, LFE
Sampling rate : 48.0 kHz
Frame rate : 31.250 FPS (1536 SPF)
Bit depth : 16 bits
Compression mode : Lossy
Stream size : 396 MiB (11%)
Title : AC-3/5.1/448Kbps by rakkhunna
Language : Thai
Service kind : Complete Main
Default : Yes
Forced : Yes

Audio #2
ID : 3
Format : AC-3
Format/Info : Audio Coding 3
Format settings, Endianness : Big
Codec ID : A_AC3
Duration : 2 h 3 min
Bit rate mode : Constant
Bit rate : 448 kb/s
Channel(s) : 6 channels
Channel positions : Front: L C R, Side: L R, LFE
Sampling rate : 48.0 kHz
Frame rate : 31.250 FPS (1536 SPF)
Bit depth : 16 bits
Compression mode : Lossy
Stream size : 396 MiB (11%)
Title : AC-3/5.1/448Kbps
Language : English
Service kind : Complete Main
Default : No
Forced : No

Text #1
ID : 4
Format : VobSub
Muxing mode : zlib
Codec ID : S_VOBSUB
Codec ID/Info : Picture based subtitle format used on DVDs
Title : VobSub [Fix with Thai audio]
Language : Thai
Default : Yes
Forced : Yes

Text #2
ID : 5
Format : VobSub
Muxing mode : zlib
Codec ID : S_VOBSUB
Codec ID/Info : Picture based subtitle format used on DVDs
Title : VobSub [Fix from TH PGS]
Language : Thai
Default : No
Forced : No

Text #3
ID : 6
Format : UTF-8
Codec ID : S_TEXT/UTF8
Codec ID/Info : UTF-8 Plain Text
Title : SubRip [UTF-8]
Language : English
Default : No
Forced : No

 

DOWNLOAD


PART01 |||| PART02 |||| PART03 |||| PART04

PART01 |||| PART02 |||| PART03 |||| PART04

PART01 |||| PART02 |||| PART03 |||| PART04

PART01 |||| PART02 |||| PART03 |||| PART04


Leave A Reply

Your email address will not be published.

%d bloggers like this: