เว็บโหลดหนัง HD MINI-HD SUPER-HQ Full-HD 1080p One2up VIP Master Zoom ซูม หนังใหม่ ออนไลน์ มาสเตอร์ ไทย จีน ฝรั่ง การ์ตูน

[Mini-HD]-Ghost In The Shell (2017) โกสต์ อิน เดอะ เชลล์ [1080p] WEB-DL DD5.1 H264.Encode.AC-3.1080p. [พากย์ไทยโรง] [ONE2UP]

0

โหลดหนัง [Mini-HD]-Ghost In The Shell (2017) โกสต์ อิน เดอะ เชลล์ [1080p] WEB-DL DD5.1 H264.Encode.AC-3.1080p. [Modified]-[พากย์ไทยโรง] [ONE2UP]

เมเจอร์ สาวไซเบอร์ระดับสูง ในหน่วยรักษาความสงบ Section 9 หน้าที่ของเธอก็คือดูแลความปลอดภัยในประเทศญี่ปุ่น โดยเฉพาะคดีที่ไม่ธรรมดา ขณะที่ เมเจอร์ กำลังปฏิบัติหน้าที่ของเธออยู่นั้น เธอก็เริ่มฉุกคิดขึ้นมา แล้วเริ่มตั้งคำถามกับตัวเองว่า เธอเป็นใคร อดีตของเธอคือใครกันแน่ หรือว่าสิ่งที่เธอเคยได้รับรู้มาทั้งหมดนั้น คือเรื่องโกหกทั้งเพ…

Complete name : [Mini-HD]-Ghost.In.The Shell.2017.1080p.WEB-DL DD5.1.H264.One2loadup.com.mkv
Format : Matroska
Format version : Version 4 / Version 2
File size : 4.29 GiB
Duration : 1 h 47 min
Overall bit rate : 5 731 kb/s
Encoded date : UTC 2017-07-07 05:16:28
Writing application : mkvmerge v7.5.0 (‘Glass Culture’) 64bit built on Jan 4 2015 16:48:44
Writing library : libebml v1.3.1 + libmatroska v1.4.2

Video
ID : 1
Format : AVC
Format/Info : Advanced Video Codec
Format profile : [email protected]
Format settings, CABAC : Yes
Format settings, RefFrames : 4 frames
Codec ID : V_MPEG4/ISO/AVC
Duration : 1 h 47 min
Bit rate : 5 026 kb/s
Width : 1 920 pixels
Height : 1 080 pixels
Display aspect ratio : 16:9
Frame rate mode : Constant
Frame rate : 23.976 (24000/1001) FPS
Color space : YUV
Chroma subsampling : 4:2:0
Bit depth : 8 bits
Scan type : Progressive
Bits/(Pixel*Frame) : 0.101
Stream size : 3.76 GiB (88%)
Language : English
Default : Yes
Forced : No
Color range : Limited
Color primaries : BT.709
Transfer characteristics : BT.709
Matrix coefficients : BT.709

Audio #1
ID : 2
Format : AC-3
Format/Info : Audio Coding 3
Format settings, Endianness : Big
Codec ID : A_AC3
Duration : 1 h 46 min
Bit rate mode : Constant
Bit rate : 384 kb/s
Channel(s) : 6 channels
Channel positions : Front: L C R, Side: L R, LFE
Sampling rate : 48.0 kHz
Frame rate : 31.250 FPS (1536 SPF)
Bit depth : 16 bits
Compression mode : Lossy
Stream size : 294 MiB (7%)
Title : English
Language : English
Service kind : Complete Main
Default : No
Forced : No

Audio #2
ID : 3
Format : AC-3
Format/Info : Audio Coding 3
Format settings, Endianness : Big
Codec ID : A_AC3
Duration : 1 h 46 min
Bit rate mode : Constant
Bit rate : 320 kb/s
Channel(s) : 2 channels
Channel positions : Front: L R
Sampling rate : 48.0 kHz
Frame rate : 31.250 FPS (1536 SPF)
Bit depth : 16 bits
Compression mode : Lossy
Stream size : 245 MiB (6%)
Title : ThaiRong-CPT
Language : Thai
Service kind : Complete Main
Default : Yes
Forced : Yes

Text
ID : 4
Format : UTF-8
Codec ID : S_TEXT/UTF8
Codec ID/Info : UTF-8 Plain Text
Duration : 1 h 32 min
Bit rate : 36 b/s
Count of elements : 878
Stream size : 24.4 KiB (0%)
Language : English
Default : Yes
Forced : No

 



PART01 |||| PART02 |||| PART03 |||| PART04 |||| PART05


PART01 |||| PART02 |||| PART03 |||| PART04 |||| PART05


PART01 |||| PART02 |||| PART03 |||| PART04 |||| PART05


Leave A Reply

Your email address will not be published.

%d bloggers like this: