โหลดหนัง HD MINI-HD SUPER-HQ Full-HD 1080p VIP Master Zoom ซูม หนังใหม่ ออนไลน์ มาสเตอร์ ไทย จีน ฝรั่ง การ์ตูน

[MINI-HD] Evan Almighty (2007) พี่ขอเป็นพระเจ้าด้วยคน [720P] [พากย์ไทย 5.1 + อังกฤษ DTS] [บรรยายไทย + อังกฤษ] [เสียงไทย + ซับไทย]

0

โหลดหนัง  Evan Almighty (2007) พี่ขอเป็นพระเจ้าด้วยคน

เรื่องย่อ Evan Almighty (2007) พี่ขอเป็นพระเจ้าด้วยคน

เรื่องราวของผู้ประกาศข่าวขี้แพ้บุคลิกแย่ อีแวน (สตีฟ คาแรลล์) ที่วันหนึ่งเขาได้รับพรวิเศษจากพระเจ้า (มอร์แกน ฟรีแมน) ได้เปลี่ยนให้เขาเป็นคนใหม่บุคลิกใหม่ พร้อมทั้งให้ทำหน้าที่ใหม่ในการสร้างเรือ โนอาห์ลำใหม่ และรวบรวมสัตว์ต่างๆ ให้ขึ้นมาอยู่บนเรือเพื่อเป็นการอนุรักษ์ไว้ก่อนจะมี เหตุการณ์น้ำท่วมโลกที่กำลังจะเกิดขึ้น (ในวันใดวันหนึ่ง ซึ่งจะเป็นเมื่อไรนั้นก็ยังไม่รู้) รู้เพียงว่าภารกิจนี้สร้างความโกลาหลและความฮากันตรึมอย่างแน่นอนครับพี่น้อง

Complete name : [MINI-HD]_Evan.Almighty.2007.720p.DTS.One2loadup.com.mkv
Format : Matroska
Format version : Version 4 / Version 2
File size : 4.24 GiB
Duration : 1 h 35 min
Overall bit rate : 6 346 kb/s
Movie name : [MINI-HD]_Evan.Almighty.2007.720p.DTS.One2loadup.com
Encoded date : UTC 2017-07-31 07:04:25
Writing application : mkvmerge v6.9.1 (‘Blue Panther’) 32bit built on Apr 18 2014 18:15:44
Writing library : libebml v1.3.0 + libmatroska v1.4.1

Video
ID : 1
Format : AVC
Format/Info : Advanced Video Codec
Format profile : [email protected]
Format settings : CABAC / 6 Ref Frames
Format settings, CABAC : Yes
Format settings, ReFrames : 6 frames
Codec ID : V_MPEG4/ISO/AVC
Duration : 1 h 35 min
Bit rate : 4 326 kb/s
Width : 1 280 pixels
Height : 544 pixels
Display aspect ratio : 2.35:1
Frame rate mode : Constant
Frame rate : 23.976 (24000/1001) FPS
Color space : YUV
Chroma subsampling : 4:2:0
Bit depth : 8 bits
Scan type : Progressive
Bits/(Pixel*Frame) : 0.259
Stream size : 2.89 GiB (68%)
Writing library : x264 core 110 r1820 fdcf2ae
Encoding settings : cabac=1 / ref=6 / deblock=1:-3:-3 / analyse=0x3:0x113 / me=umh / subme=10 / psy=1 / psy_rd=1.00:0.00 / mixed_ref=1 / me_range=24 / chroma_me=1 / trellis=2 / 8x8dct=1 / cqm=0 / deadzone=21,11 / fast_pskip=0 / chroma_qp_offset=-2 / threads=6 / sliced_threads=0 / nr=0 / decimate=1 / interlaced=0 / constrained_intra=0 / bframes=7 / b_pyramid=2 / b_adapt=2 / b_bias=0 / direct=1 / weightb=1 / open_gop=0 / weightp=2 / keyint=250 / keyint_min=23 / scenecut=40 / intra_refresh=0 / rc=crf / mbtree=0 / crf=16.5 / qcomp=0.60 / qpmin=10 / qpmax=51 / qpstep=4 / ip_ratio=1.40 / pb_ratio=1.30 / aq=1:0.80
Language : English
Default : Yes
Forced : Yes

Audio #1
ID : 2
Format : DTS
Format/Info : Digital Theater Systems
Codec ID : A_DTS
Duration : 1 h 35 min
Bit rate mode : Constant
Bit rate : 1 509 kb/s
Channel(s) : 6 channels
Channel positions : Front: L C R, Side: L R, LFE
Sampling rate : 48.0 kHz
Frame rate : 93.750 FPS (512 SPF)
Bit depth : 24 bits
Compression mode : Lossy
Stream size : 1.01 GiB (24%)
Language : English
Default : Yes
Forced : Yes

Audio #2
ID : 3
Format : AC-3
Format/Info : Audio Coding 3
Codec ID : A_AC3
Duration : 1 h 35 min
Bit rate mode : Constant
Bit rate : 384 kb/s
Channel(s) : 6 channels
Channel positions : Front: L C R, Side: L R, LFE
Sampling rate : 48.0 kHz
Frame rate : 31.250 FPS (1536 SPF)
Bit depth : 16 bits
Compression mode : Lossy
Stream size : 263 MiB (6%)
Language : Thai
Service kind : Complete Main
Default : No
Forced : No

Text #1
ID : 4
Format : VobSub
Muxing mode : zlib
Codec ID : S_VOBSUB
Codec ID/Info : Picture based subtitle format used on DVDs
Language : Thai
Default : Yes
Forced : Yes

Text #2
ID : 5
Format : PGS
Muxing mode : zlib
Codec ID : S_HDMV/PGS
Codec ID/Info : Picture based subtitle format used on BDs/HD-DVDs
Language : Thai
Default : No
Forced : No

Text #3
ID : 6
Format : UTF-8
Codec ID : S_TEXT/UTF8
Codec ID/Info : UTF-8 Plain Text
Language : English
Default : No
Forced : No

Menu
00:00:00.000 : en:1. Change the World! (Main Titles)
00:03:37.050 : en:2. A New Home
00:10:03.144 : en:3. Cosponsoring a Bill
00:14:00.506 : en:4. Genesis 6:14
00:18:23.227 : en:5. Committee Meeting
00:23:02.506 : en:6. Lucky Day
00:29:27.849 : en:7. The Chosen One
00:33:40.769 : en:8. Ark Building for Dummies
00:38:14.209 : en:9. Construction Project
00:42:04.564 : en:10. Running With the Pack
00:44:59.739 : en:11. Ask and You Shall Receive
00:50:12.384 : en:12. Back to Work
00:56:16.081 : en:13. It’s Because of Him
01:02:20.528 : en:14. Together Again
01:07:21.412 : en:15. Cutting Corners
01:11:02.800 : en:16. The Flood Is Imminent
01:16:11.025 : en:17. Get on the Ark
01:20:59.104 : en:18. A Little Help
01:23:52.986 : en:19. Capitol Hill
01:28:40.690 : en:20. Thou Shalt Do the Dance (End Titles)

DOWNLOAD


PART01 |||| PART02 |||| PART03 |||| PART04 |||| PART05

PART01 |||| PART02 |||| PART03 |||| PART04 |||| PART05

PART01 |||| PART02 |||| PART03 |||| PART04 |||| PART05

PART01 |||| PART02 |||| PART03 |||| PART04 |||| PART05


Leave A Reply

Your email address will not be published.

%d bloggers like this: