[MINI-HD] Encounter of the Spooky Kind II (1990) ผีกัดอย่ากัดตอบ ตอน ผีรอบจัดกัดหมู่ [1080p] [พากย์ไทย 2.0] [อินทรีต้นฉบับ] [เสียงไทย + ซับจีนฝัง] [ONE2UP]

0

โหลดหนัง  Encounter of the Spooky Kind II (1990) ผีกัดอย่ากัดตอบ ตอน ผีรอบจัดกัดหมู่

Gui yao gui (1989) 1h 27min | Action, Comedy, Horror | 9 February 1990 (Hong Kong) Summary: Impoverished teahouse worker (and martial-arts student) Abao is engaged to his boss' daughter, Little Chu, and fights to protect her from the lecherous advances of the wealthy but repulsive... See full summary »
Countries: Hong KongLanguages: Cantonese

เรื่องย่อ Encounter of the Spooky Kind II (1990) ผีกัดอย่ากัดตอบ ตอน ผีรอบจัดกัดหมู่

ภาคแรกไม่มีเน้อ

Complete name : [MINI-HD]_Encounters.Of.The.Spooky.Kind.2.1990.1080p.ACC.One2loadup.com.mkv
Format : Matroska
Format version : Version 4
File size : 2.99 GiB
Duration : 1 h 38 min
Overall bit rate mode : Variable
Overall bit rate : 4 329 kb/s
Movie name : [MINI-HD]_Encounters.Of.The.Spooky.Kind.2.1990.1080p.ACC.One2loadup.com
Encoded date : UTC 2018-05-31 22:49:08
Writing application : mkvmerge v14.0.0 (‘Flow’) 64bit
Writing library : libebml v1.3.4 + libmatroska v1.4.5

Video
ID : 1
Format : AVC
Format/Info : Advanced Video Codec
Format profile : [email protected]
Format settings : CABAC / 3 Ref Frames
Format settings, CABAC : Yes
Format settings, ReFrames : 3 frames
Codec ID : V_MPEG4/ISO/AVC
Duration : 1 h 38 min
Bit rate mode : Variable
Bit rate : 4 137 kb/s
Maximum bit rate : 40.0 Mb/s
Width : 1 920 pixels
Height : 1 080 pixels
Display aspect ratio : 16:9
Frame rate mode : Constant
Frame rate : 25.000 FPS
Standard : PAL
Color space : YUV
Chroma subsampling : 4:2:0
Bit depth : 8 bits
Scan type : Progressive
Bits/(Pixel*Frame) : 0.080
Stream size : 2.86 GiB (96%)
Language : Chinese
Default : Yes
Forced : No
Color range : Limited
Color primaries : BT.709
Transfer characteristics : BT.709
Matrix coefficients : BT.709

Audio
ID : 2
Format : AAC LC
Format/Info : Advanced Audio Codec Low Complexity
Codec ID : A_AAC-2
Duration : 1 h 38 min
Bit rate : 192 kb/s
Channel(s) : 2 channels
Channel layout : L R
Sampling rate : 48.0 kHz
Frame rate : 46.875 FPS (1024 SPF)
Compression mode : Lossy
Stream size : 134 MiB (4%)
Title : aac 2.0
Language : Thai
Default : Yes
Forced : No

 

DOWNLOAD


PART01 |||| PART02 |||| PART03 |||| PART04

PART01 |||| PART02 |||| PART03 |||| PART04

PART01 |||| PART02 |||| PART03 |||| PART04

PART01 |||| PART02 |||| PART03 |||| PART04


Leave A Reply

Your email address will not be published.

%d bloggers like this: