[MINI-HD] Deep Rising (1998) เลื้อยทะลวง 20,000 โยชน์ [720p] [พากย์ไทย 2.0 + เสียงอังกฤษ DTS] [บรรยายไทย + อังกฤษ] [เสียงไทย + ซับไทย] [ONE2UP]

0

โหลดหนัง  Deep Rising (1998) เลื้อยทะลวง 20,000 โยชน์

Deep Rising (1998) 1h 46min | Action, Adventure, Horror | 30 July 1998 (Netherlands) Summary: A group of heavily armed hijackers board a luxury ocean liner in the South Pacific Ocean to loot it, only to do battle with a series of large-sized, tentacled, man-eating sea creatures who had already invaded the ship.
Countries: USA, CanadaLanguages: English, Korean

เรื่องย่อ Deep Rising (1998) เลื้อยทะลวง 20,000 โยชน์

เหล่าโจรสลัดสุดเก๋า ได้ทำการยึดเรือสำราญลำใหญ่สุดหรูหราในทะเลใต้ แต่พวกเขากลับไม่พบร่องรอยผู้โดยสารหรือลูกเรือเลยแม ้แต่คนเดียว เหล่าบรรดาลูกเรือและผู้โดยสารทั้งลำหายไปไหน และพวกเขาก็ได้พบเจอความจริงอันน่าสุดสยองว่า บนเรือลำนี้ไม่ได้มีแค่พวกเขาเท่านั้น แต่ยังมีสัตว์ประหลาดตัวเป้งโคตรโหดแห่งท้องทะเลอยู่ ด้วย และอาหารอันโอชะของมันก็คือ..มนุษย์นั่นเอง!!

Complete name : [MINI-HD]_Deep.Rising.1998.720p.BluRay.DTS.x264.One2loadup.com.mkv
Format : Matroska
Format version : Version 1
File size : 4.23 GiB
Duration : 1 h 46 min
Overall bit rate : 5 711 kb/s
Movie name : [MINI-HD]_Deep.Rising.1998.720p.BluRay.DTS.x264.One2loadup.com
Encoded date : UTC 2013-08-13 13:07:07
Writing application : mkvmerge v2.4.0 (‘Fumbling Towards Ecstasy’) built on Oct 11 2008 20:13:15
Writing library : libebml v0.7.7 + libmatroska v0.8.1

Video
ID : 1
Format : AVC
Format/Info : Advanced Video Codec
Format profile : [email protected]
Format settings : CABAC / 5 Ref Frames
Format settings, CABAC : Yes
Format settings, ReFrames : 5 frames
Codec ID : V_MPEG4/ISO/AVC
Duration : 1 h 46 min
Bit rate : 4 374 kb/s
Width : 1 280 pixels
Height : 544 pixels
Display aspect ratio : 2.35:1
Frame rate mode : Constant
Frame rate : 23.976 FPS
Color space : YUV
Chroma subsampling : 4:2:0
Bit depth : 8 bits
Scan type : Progressive
Bits/(Pixel*Frame) : 0.262
Stream size : 3.16 GiB (75%)
Title : [MINI-HD]_Deep.Rising.1998.720p.BluRay.DTS.x264.One2loadup.com
Writing library : x264 core 129 r2245 bc13772
Encoding settings : cabac=1 / ref=5 / deblock=1:-3:-3 / analyse=0x3:0x113 / me=umh / subme=9 / psy=1 / psy_rd=1.00:0.00 / mixed_ref=1 / me_range=18 / chroma_me=1 / trellis=1 / 8x8dct=1 / cqm=0 / deadzone=21,11 / fast_pskip=0 / chroma_qp_offset=-2 / threads=3 / lookahead_threads=1 / sliced_threads=0 / nr=0 / decimate=0 / interlaced=0 / bluray_compat=0 / constrained_intra=0 / bframes=3 / b_pyramid=2 / b_adapt=1 / b_bias=0 / direct=1 / weightb=1 / open_gop=0 / weightp=2 / keyint=240 / keyint_min=23 / scenecut=40 / intra_refresh=0 / rc_lookahead=40 / rc=2pass / mbtree=1 / bitrate=4374 / ratetol=1.0 / qcomp=0.60 / qpmin=0 / qpmax=69 / qpstep=4 / cplxblur=20.0 / qblur=0.5 / ip_ratio=1.40 / aq=1:1.00
Language : English
Default : Yes
Forced : No

Audio #1
ID : 2
Format : DTS
Format/Info : Digital Theater Systems
Codec ID : A_DTS
Duration : 1 h 46 min
Bit rate mode : Constant
Bit rate : 755 kb/s
Channel(s) : 6 channels
Channel layout : C L R Ls Rs LFE
Sampling rate : 48.0 kHz
Frame rate : 93.750 FPS (512 SPF)
Bit depth : 24 bits
Compression mode : Lossy
Delay relative to video : 11 ms
Stream size : 573 MiB (13%)
Title : ENGLISH DTS 5.1
Language : English
Default : Yes
Forced : No

Audio #2
ID : 3
Format : AC-3
Format/Info : Audio Coding 3
Commercial name : Dolby Digital
Codec ID : A_AC3
Duration : 1 h 46 min
Bit rate mode : Constant
Bit rate : 192 kb/s
Channel(s) : 2 channels
Channel layout : L R
Sampling rate : 48.0 kHz
Frame rate : 31.250 FPS (1536 SPF)
Bit depth : 16 bits
Compression mode : Lossy
Stream size : 146 MiB (3%)
Title : THAI
Service kind : Complete Main
Default : No
Forced : No

Audio #3
ID : 4
Format : AC-3
Format/Info : Audio Coding 3
Commercial name : Dolby Digital
Codec ID : A_AC3
Duration : 1 h 46 min
Bit rate mode : Constant
Bit rate : 384 kb/s
Channel(s) : 6 channels
Channel layout : L R C LFE Ls Rs
Sampling rate : 48.0 kHz
Frame rate : 31.250 FPS (1536 SPF)
Bit depth : 16 bits
Compression mode : Lossy
Stream size : 292 MiB (7%)
Title : ENGLISH AC3
Service kind : Complete Main
Default : No
Forced : No

Text #1
ID : 5
Format : VobSub
Muxing mode : zlib
Codec ID : S_VOBSUB
Codec ID/Info : Picture based subtitle format used on DVDs
Title : THAI
Language : Thai
Default : Yes
Forced : No

Text #2
ID : 6
Format : UTF-8
Codec ID : S_TEXT/UTF8
Codec ID/Info : UTF-8 Plain Text
Title : ENGLISH
Default : No
Forced : No

Text #3
ID : 7
Format : VobSub
Muxing mode : zlib
Codec ID : S_VOBSUB
Codec ID/Info : Picture based subtitle format used on DVDs
Title : THAI2
Language : Thai
Default : No
Forced : No

Menu
00:00:00.000 : en:00:00:00.000
00:08:57.412 : en:00:08:57.412
00:17:29.423 : en:00:17:29.423
00:26:46.188 : en:00:26:46.188
00:37:03.888 : en:00:37:03.888
00:45:13.544 : en:00:45:13.544
00:56:11.326 : en:00:56:11.326
01:06:52.175 : en:01:06:52.175
01:17:26.433 : en:01:17:26.433
01:25:07.978 : en:01:25:07.978
01:31:15.470 : en:01:31:15.470
01:38:28.236 : en:01:38:28.236

DOWNLOAD


PART01 |||| PART02 |||| PART03 |||| PART04 |||| PART05

PART01 |||| PART02 |||| PART03 |||| PART04 |||| PART05

PART01 |||| PART02 |||| PART03 |||| PART04 |||| PART05

PART01 |||| PART02 |||| PART03 |||| PART04 |||| PART05


Leave A Reply

Your email address will not be published.

%d bloggers like this: