โหลดหนัง HD MINI-HD SUPER-HQ Full-HD 1080p VIP Master Zoom ซูม หนังใหม่ ออนไลน์ มาสเตอร์ ไทย จีน ฝรั่ง การ์ตูน

[MINI-HD] Dawn of the Planet of the Apes (2014) รุ่งอรุณแห่งพิภพวานร [1080p] [พากย์ไทย 5.1 + อังกฤษ DTS] [บรรยายไทย + อังกฤษ] [เสียงไทย + ซับไทย]

4

Dawn of the Planet of the Apes (2014) รุ่งอรุณแห่งพิภพวานร

โหลดหนัง Dawn of the Planet of the Apes (2014) รุ่งอรุณแห่งพิภพวานร 

เรื่องย่อ Dawn of the Planet of the Apes (2014) รุ่งอรุณแห่งพิภพวานร

ประชากรลิงที่ได้รับการพัฒนายีนซึ่งนำโดย ซีซาร์ ที่เพิ่มจำนวนขึ้น ต่างถูกคุกคามจากกลุ่มมนุษย์ผู้รอดชีวิตจากไวรัสทำลายล้างที่มีการปล่อยออกมาเมื่อ 10 ปีก่อน สงครามพร้อมปะทุขึ้นทุกเมื่อ แต่นั่นคือการพิสูจน์ให้เห็นถึงอายุขัยระยะสั้นทั้งสองฝ่ายต่างพร้อมทำสงครามที่จะเป็นการตัดสินว่าสายพันธุ์ใดจะเป็นผู้ครองโลก

Complete name : [MINI-HD]_ Dawn.of.The.Planet.of.The.Apes.2014.1080p.x264.TH.AC3.One2loadup.com.mkv
Format : Matroska
Format version : Version 4 / Version 2
File size : 4.42 GiB
Duration : 2 h 10 min
Overall bit rate : 4 847 kb/s
Encoded date : UTC 2017-10-20 05:31:56 / UTC 2017-10-18T23:05:12Z
Writing application : mkvmerge v8.3.0 (‘Over the Horizon’) 64bit
Writing library : libebml v1.3.1 + libmatroska v1.4.2 / Lavf55.12.0

Video
ID : 1
Format : AVC
Format/Info : Advanced Video Codec
Format profile : [email protected]
Format settings : CABAC / 4 Ref Frames
Format settings, CABAC : Yes
Format settings, ReFrames : 4 frames
Codec ID : V_MPEG4/ISO/AVC
Duration : 2 h 10 min
Bit rate : 2 794 kb/s
Width : 1 920 pixels
Height : 1 040 pixels
Display aspect ratio : 1.85:1
Frame rate mode : Constant
Frame rate : 23.976 (24000/1001) FPS
Color space : YUV
Chroma subsampling : 4:2:0
Bit depth : 8 bits
Scan type : Progressive
Bits/(Pixel*Frame) : 0.058
Stream size : 2.55 GiB (58%)
Writing library : x264 core 142 r2479 dd79a61
Encoding settings : cabac=1 / ref=1 / deblock=1:0:0 / analyse=0x1:0x111 / me=hex / subme=2 / psy=1 / psy_rd=1.00:0.00 / mixed_ref=0 / me_range=16 / chroma_me=1 / trellis=0 / 8x8dct=0 / cqm=0 / deadzone=21,11 / fast_pskip=1 / chroma_qp_offset=0 / threads=6 / lookahead_threads=2 / sliced_threads=0 / nr=0 / decimate=1 / interlaced=0 / bluray_compat=0 / constrained_intra=0 / bframes=3 / b_pyramid=2 / b_adapt=1 / b_bias=0 / direct=1 / weightb=1 / open_gop=0 / weightp=1 / keyint=240 / keyint_min=24 / scenecut=40 / intra_refresh=0 / rc_lookahead=10 / rc=crf / mbtree=1 / crf=23.0 / qcomp=0.60 / qpmin=0 / qpmax=69 / qpstep=4 / vbv_maxrate=20000 / vbv_bufsize=25000 / crf_max=0.0 / nal_hrd=none / filler=0 / ip_ratio=1.40 / aq=1:1.00
Language : Thai
Default : Yes
Forced : Yes
Color range : Limited
Color primaries : BT.709
Transfer characteristics : BT.709
Matrix coefficients : BT.709
Statistics Tags Issue : mkvmerge v8.3.0 (‘Over the Horizon’) 64bit 2017-10-20 05:31:56 / mkvmerge v8.3.0 (‘Over the Horizon’) 64bit 2017-10-20 05:31:56 / UTC 2017-10-18T23:05:12Z
FromStats_BitRate : 2879721
FromStats_Duration : 02:10:24.877000000
FromStats_FrameCount : 187609
FromStats_StreamSize : 2816683078

Audio #1
ID : 2
Format : DTS
Format/Info : Digital Theater Systems
Format profile : ES Matrix / Core
Codec ID : A_DTS
Duration : 2 h 10 min
Bit rate mode : Constant
Bit rate : 1 509 kb/s
Channel(s) : 7 channels / 6 channels
Channel positions : Front: L C R, Side: L R, Back: C, LFE / Front: L C R, Side: L R, LFE
Sampling rate : 48.0 kHz
Frame rate : 93.750 FPS (512 SPF)
Bit depth : 24 bits
Compression mode : Lossy
Stream size : 1.37 GiB (31%)
Title : Surround
Language : English
Default : No
Forced : No
Statistics Tags Issue : mkvmerge v8.3.0 (‘Over the Horizon’) 64bit 2017-10-20 05:31:56 / mkvmerge v8.3.0 (‘Over the Horizon’) 64bit 2017-10-20 05:31:56 / UTC 2017-10-18T23:05:12Z
FromStats_BitRate : 1508999
FromStats_Duration : 02:10:24.854000000
FromStats_FrameCount : 733580
FromStats_StreamSize : 1475962960

Audio #2
ID : 3
Format : AC-3
Format/Info : Audio Coding 3
Codec ID : A_AC3
Duration : 2 h 10 min
Bit rate mode : Constant
Bit rate : 448 kb/s
Channel(s) : 6 channels
Channel positions : Front: L C R, Side: L R, LFE
Sampling rate : 48.0 kHz
Frame rate : 31.250 FPS (1536 SPF)
Bit depth : 16 bits
Compression mode : Lossy
Stream size : 418 MiB (9%)
Title : Surround
Language : Thai
Service kind : Complete Main
Default : Yes
Forced : Yes
Statistics Tags Issue : mkvmerge v8.3.0 (‘Over the Horizon’) 64bit 2017-10-20 05:31:56 / mkvmerge v8.3.0 (‘Over the Horizon’) 64bit 2017-10-20 05:31:56 / UTC 2017-10-18T23:05:12Z
FromStats_BitRate : 448000
FromStats_Duration : 02:10:24.864000000
FromStats_FrameCount : 244527
FromStats_StreamSize : 438192384

Text #1
ID : 4
Format : PGS
Muxing mode : zlib
Codec ID : S_HDMV/PGS
Codec ID/Info : Picture based subtitle format used on BDs/HD-DVDs
Language : English
Default : No
Forced : No
Statistics Tags Issue : mkvmerge v8.3.0 (‘Over the Horizon’) 64bit 2017-10-20 05:31:56 / mkvmerge v8.3.0 (‘Over the Horizon’) 64bit 2017-10-20 05:31:56 / UTC 2017-10-18T23:05:12Z
FromStats_BitRate : 4943
FromStats_Duration : 01:57:35.965000000
FromStats_FrameCount : 1732
FromStats_StreamSize : 4360169

Text #2
ID : 5
Format : PGS
Muxing mode : zlib
Codec ID : S_HDMV/PGS
Codec ID/Info : Picture based subtitle format used on BDs/HD-DVDs
Language : Thai
Default : Yes
Forced : Yes
Statistics Tags Issue : mkvmerge v8.3.0 (‘Over the Horizon’) 64bit 2017-10-20 05:31:56 / mkvmerge v8.3.0 (‘Over the Horizon’) 64bit 2017-10-20 05:31:56 / UTC 2017-10-18T23:05:12Z
FromStats_BitRate : 3651
FromStats_Duration : 02:09:23.297000000
FromStats_FrameCount : 1758
FromStats_StreamSize : 3543674

Menu
00:00:00.000 : :Chapter 1
00:03:20.634 : :Chapter 2
00:07:34.054 : :Chapter 3
00:12:36.648 : :Chapter 4
00:16:23.666 : :Chapter 5
00:18:47.143 : :Chapter 6
00:21:52.578 : :Chapter 7
00:25:26.792 : :Chapter 8
00:29:45.968 : :Chapter 9
00:31:50.718 : :Chapter 10
00:36:43.844 : :Chapter 11
00:39:07.654 : :Chapter 12
00:40:57.264 : :Chapter 13
00:44:12.333 : :Chapter 14
00:48:10.780 : :Chapter 15
00:50:31.629 : :Chapter 16
00:53:48.117 : :Chapter 17
00:57:24.875 : :Chapter 18
01:01:18.567 : :Chapter 19
01:02:35.477 : :Chapter 20
01:04:24.169 : :Chapter 21
01:06:20.994 : :Chapter 22
01:09:30.684 : :Chapter 23
01:13:57.075 : :Chapter 24
01:17:17.066 : :Chapter 25
01:20:53.491 : :Chapter 26
01:23:28.854 : :Chapter 27
01:26:09.098 : :Chapter 28
01:28:19.353 : :Chapter 29
01:33:24.491 : :Chapter 30
01:35:52.639 : :Chapter 31
01:38:38.722 : :Chapter 32
01:40:42.637 : :Chapter 33
01:44:06.966 : :Chapter 34
01:46:04.625 : :Chapter 35
01:47:53.859 : :Chapter 36
01:52:13.035 : :Chapter 37
01:56:26.955 : :Chapter 38
02:00:31.116 : :Chapter 39
02:01:34.805 : :Chapter 40

DOWNLOAD


PART01 |||| PART02 |||| PART03 |||| PART04 |||| PART05

PART01 |||| PART02 |||| PART03 |||| PART04 |||| PART05 

PART01 |||| PART02 |||| PART03 |||| PART04 |||| PART05

PART01 |||| PART02 |||| PART03 |||| PART04 |||| PART05


4 Comments
  1. Tan159682
    Tan159682 says

    part5 โหลดไม่ได้ครับ

    1. Admin
      Admin says

      แก้ไขเรียบร้อยฮ๊ะ

  2. Thadprom Officer
    Thadprom Officer says

    part4ของzuploadเสียครับ

    1. Admin
      Admin says

      โหลดได้ปกติ ฮ๊ะ ถ้าแยกไฟล์ไม่ได้ ให้ใช้ winrar version ล่าสุดฮ๊ะ

Leave A Reply

Your email address will not be published.

%d bloggers like this: