โหลดหนัง HD MINI-HD SUPER-HQ Full-HD 1080p VIP Master Zoom ซูม หนังใหม่ ออนไลน์ มาสเตอร์ ไทย จีน ฝรั่ง การ์ตูน

[MINI-HD] Brother of the Year (Nong Pee Teerak) (2018) น้อง พี่ ที่รัก [1080p] [พากย์ไทย 5.1+2.0] [บรรยายอังกฤษ] [เสียงไทยมาสเตอร์ + ซับ Eng] [OPENLOAD]

0

Brother of the Year (Nong Pee Teerak) (2018) น้อง พี่ ที่รัก

โหลดหนัง Brother of the Year (Nong Pee Teerak) (2018) น้อง พี่ ที่รัก 

เรื่องย่อ Brother of the Year (Nong Pee Teerak) (2018) น้อง พี่ ที่รัก

ตั้งแต่เด็ก ชัช (ซันนี่ สุวรรณเมธานนท์) คิดมาตลอดว่าน้องที่อยู่ในท้องแม่คือน้องชาย พอถึงวันที่แม่คลอดแล้วกลายเป็นน้องสาว ชัชจึงเซ็งระดับสิบ ความฝันที่จะได้เล่นหุ่นยนต์และเตะบอลแมนๆ กับน้องก็จบไป เพราะเล่นกับไอ้เจน (ญาญ่า อุรัสยา เสปอร์บันด์) ทีไร มันก็ร้องไห้งอแงทุกที ตั้งแต่เด็กจนโต ชัชกับเจนตีกันได้ ทุกเรื่อง เพราะเจนชอบทำตัวเหมือนเป็นแม่มากกว่าเป็นน้อง ส่วนชัชก็ชอบทำตัวเป็นภาระมากกว่าเป็นพี่ จะมีพี่ชายคนไหนที่ห่วยกว่าน้องสาวไปซะทุกด้าน ไม่ว่าจะเป็นเรื่องการเรียน กีฬา หน้าตา นิสัย แข่งกัน ยังไง เจนก็เพอร์เฟคกว่า เวลาเดียวที่ชัชจะโชว์เหนือทำตัวเป็นพี่ ก็คือตอนที่มีคนมาจีบเจน ชัชจะทำตัวกร่างไล่หนุ่มๆให้หนีหายไปหมด เหมือนเป็นการเอาคืนนั่นจึงเป็นเหตุผลที่เจนต้องปิดบังความรักระหว่างเธอกับโมจิ (นิชคุณ หรเวชกุล) ชายหนุ่มลูกครึ่งญี่ปุ่น สุดเพอร์เฟค เพราะเจนไม่อยากให้รักครั้งนี้ต้องพังยับด้วยน้ำมือของพี่ชัชเหมือนที่ผ่านมา แต่ความรักไม่ใช่ความลับ ชัชรู้จนได้ว่าเจนกับโมจิแอบคบกัน แล้วมีเหรอที่ชัชจะยอมปล่อยผ่าน ก็บอกแล้วว่าอะไรที่ทำให้น้องมีความสุข พี่ชายที่แสนดีอย่างชัชจะไม่มีวันยอมให้เกิดขึ้นแน่นอน!!

Complete name : [MINI-HD]_Brother.of.the.Year.2018.1080p.WEB-DL.AC3.x264.One2loadup.com.mkv
Format : Matroska
Format version : Version 4
File size : 5.02 GiB
Duration : 2 h 3 min
Overall bit rate : 5 817 kb/s
Movie name : [MINI-HD]_Brother.of.the.Year.2018.1080p.WEB-DL.AC3.x264.One2loadup.com
Encoded date : UTC 2018-12-01 05:23:25
Writing application : mkvmerge v9.8.0 (‘Kuglblids’) 64bit
Writing library : libebml v1.3.4 + libmatroska v1.4.5

Video
ID : 1
Format : AVC
Format/Info : Advanced Video Codec
Format profile : [email protected]
Format settings : CABAC / 4 Ref Frames
Format settings, CABAC : Yes
Format settings, ReFrames : 4 frames
Codec ID : V_MPEG4/ISO/AVC
Duration : 2 h 3 min
Bit rate : 5 186 kb/s
Width : 1 912 pixels
Height : 1 032 pixels
Display aspect ratio : 1.85:1
Frame rate mode : Constant
Frame rate : 24.000 FPS
Color space : YUV
Chroma subsampling : 4:2:0
Bit depth : 8 bits
Scan type : Progressive
Bits/(Pixel*Frame) : 0.110
Stream size : 4.47 GiB (89%)
Title : [MINI-HD]_Brother.of.the.Year.2018.1080p.WEB-DL.AC3.x264.One2loadup.com
Language : Thai
Default : Yes
Forced : No
Color range : Limited
Color primaries : BT.709
Transfer characteristics : BT.709
Matrix coefficients : BT.709

Audio #1
ID : 2
Format : AC-3
Format/Info : Audio Coding 3
Commercial name : Dolby Digital
Codec ID : A_AC3
Duration : 2 h 3 min
Bit rate mode : Constant
Bit rate : 384 kb/s
Channel(s) : 6 channels
Channel layout : L R C LFE Ls Rs
Sampling rate : 48.0 kHz
Frame rate : 31.250 FPS (1536 SPF)
Bit depth : 16 bits
Compression mode : Lossy
Stream size : 339 MiB (7%)
Title : Thai AC3 5.1
Language : Thai
Service kind : Complete Main
Default : No
Forced : No

Audio #2
ID : 3
Format : AAC LC
Format/Info : Advanced Audio Codec Low Complexity
Codec ID : A_AAC-2
Duration : 2 h 3 min
Bit rate : 238 kb/s
Channel(s) : 2 channels
Channel layout : L R
Sampling rate : 48.0 kHz
Frame rate : 46.875 FPS (1024 SPF)
Compression mode : Lossy
Stream size : 210 MiB (4%)
Title : Thai 2.0
Language : Thai
Default : Yes
Forced : No

Text
ID : 4
Format : VobSub
Codec ID : S_VOBSUB
Codec ID/Info : Picture based subtitle format used on DVDs
Duration : 1 h 58 min
Bit rate : 6 142 b/s
Count of elements : 1683
Stream size : 5.22 MiB (0%)
Title : English
Language : English
Default : Yes
Forced : No

DOWNLOAD


PART01 |||| PART02 |||| PART03 |||| PART04 |||| PART05 |||| PART06

PART01 |||| PART02 |||| PART03 |||| PART04 |||| PART05 |||| PART06

PART01 |||| PART02 |||| PART03 |||| PART04 |||| PART05 |||| PART06

PART01 |||| PART02 |||| PART03 |||| PART04 |||| PART05 |||| PART06


Leave A Reply

Your email address will not be published.

%d bloggers like this: