โหลดหนัง HD MINI-HD SUPER-HQ Full-HD 1080p VIP Master Zoom ซูม หนังใหม่ ออนไลน์ มาสเตอร์ ไทย จีน ฝรั่ง การ์ตูน

[MINI-HD] BloodRayne II: Deliverance (2007) ผ่าพิภพแวมไพร์ ภาค 2 [720p] [พากย์ไทย 5.1 + เสียงอังกฤษ 5.1] [DVDRip] [บรรยายไทย + อังกฤษ] [เสียงไทย + ซับไทย] [OPENLOAD]

0

โหลดหนัง  BloodRayne II: Deliverance (2007) ผ่าพิภพแวมไพร์ ภาค 2

เรื่องย่อ BloodRayne II: Deliverance (2007) ผ่าพิภพแวมไพร์ ภาค 2

สรุปย่อเรื่องราวเรย์นเป็นครึ่งมนุษย์ครึ่งแวมไพร์ ที่ถูกความทรงจำในวัยเด็กตามหลอนตลอด เพราะได้เห็นแม่ของตนเอง ถูกข่มขืนและฆาตกรรมอย่างทารุณ เมื่อเรย์นค้นพบว่าชายที่ฆ่าแม่ของเธอ แท้จริงแล้วคือ พ่อบังเกิดเกล้านาม คาแกน ราชาผู้ทรงอำนาจของเหล่าแวมไพร์ เธอจึงเริ่มออกปฏิบัติการทำลายล้างเขา ด้วย กองทัพแวมไพร์และสมุนครึ่งมนุษย์ คาแกนวางแผนที่จะทำให้โลกถูกปกคลุมด้วยความมืดมิด เรย์นยอมรับในโชคชะตาและใช้ทักษะด้านการต่อสู้ รวมทั้งพลังอำนาจพิเศษในตัวเธอ ขัดขวางแผนการของ คาแกน ก่อนที่เขาจะทำลายล้างโลก มาถึงภาคต่อของสงครามอมตะที่ชวนสยองจริงๆ

Complete name : [MINI-HD]_BloodRayne.II.Deliverance.2007.720p.DVDRip.AC3.One2loadup.com.mkv
Format : Matroska
Format version : Version 4
File size : 3.66 GiB
Duration : 1 h 39 min
Overall bit rate mode : Variable
Overall bit rate : 5 271 kb/s
Movie name : [MINI-HD]_BloodRayne.II.Deliverance.2007.720p.DVDRip.AC3.One2loadup.com
Encoded date : UTC 2018-11-16 13:46:16
Writing application : mkvmerge v28.2.0 (‘The Awakening’) 64-bit
Writing library : libebml v1.3.6 + libmatroska v1.4.9

Video
ID : 1
Format : MPEG Video
Format version : Version 2
Format profile : [email protected]
Format settings : CustomMatrix / BVOP
Format settings, BVOP : Yes
Format settings, Matrix : Custom
Format settings, GOP : M=3, N=12
Codec ID : V_MPEG2
Codec ID/Info : MPEG 1 or 2 Video
Duration : 1 h 39 min
Bit rate mode : Variable
Bit rate : 4 369 kb/s
Maximum bit rate : 7 500 kb/s
Width : 720 pixels
Height : 480 pixels
Display aspect ratio : 16:9
Frame rate mode : Variable
Frame rate : 24.042 FPS
Original frame rate : 29.970 (30000/1001) FPS
Color space : YUV
Chroma subsampling : 4:2:0
Bit depth : 8 bits
Compression mode : Lossy
Bits/(Pixel*Frame) : 0.526
Time code of first frame : 00:59:59:20
Time code source : Group of pictures header
GOP, Open/Closed : Open
GOP, Open/Closed of first f : Closed
Stream size : 3.03 GiB (83%)
Title : [MINI-HD]_BloodRayne.II.Deliverance.2007.720p.DVDRip.AC3.One2loadup.com
Language : English
Default : No
Forced : No

Audio #1
ID : 2
Format : AC-3
Format/Info : Audio Coding 3
Commercial name : Dolby Digital
Codec ID : A_AC3
Duration : 1 h 39 min
Bit rate mode : Constant
Bit rate : 448 kb/s
Channel(s) : 6 channels
Channel layout : L R C LFE Ls Rs
Sampling rate : 48.0 kHz
Frame rate : 31.250 FPS (1536 SPF)
Bit depth : 16 bits
Compression mode : Lossy
Stream size : 318 MiB (8%)
Title : Surround 5.1
Language : English
Service kind : Complete Main
Default : Yes
Forced : No

Audio #2
ID : 3
Format : AC-3
Format/Info : Audio Coding 3
Commercial name : Dolby Digital
Codec ID : A_AC3
Duration : 1 h 39 min
Bit rate mode : Constant
Bit rate : 448 kb/s
Channel(s) : 6 channels
Channel layout : L R C LFE Ls Rs
Sampling rate : 48.0 kHz
Frame rate : 31.250 FPS (1536 SPF)
Bit depth : 16 bits
Compression mode : Lossy
Stream size : 318 MiB (8%)
Title : Surround 5.1
Language : Thai
Service kind : Complete Main
Default : No
Forced : No

Text #1
ID : 4
Format : VobSub
Muxing mode : zlib
Codec ID : S_VOBSUB
Codec ID/Info : Picture based subtitle format used on DVDs
Duration : 1 h 33 min
Bit rate : 3 023 b/s
Count of elements : 915
Stream size : 2.02 MiB (0%)
Language : Thai
Default : Yes
Forced : No

Text #2
ID : 5
Format : VobSub
Muxing mode : zlib
Codec ID : S_VOBSUB
Codec ID/Info : Picture based subtitle format used on DVDs
Duration : 1 h 31 min
Bit rate : 3 204 b/s
Count of elements : 971
Stream size : 2.09 MiB (0%)
Language : English
Default : No
Forced : No

Menu
00:00:00.066 : en:Chapter 01
00:04:48.404 : en:Chapter 02
00:12:22.074 : en:Chapter 03
00:14:33.706 : en:Chapter 04
00:15:27.509 : en:Chapter 05
00:16:36.929 : en:Chapter 06
00:21:58.483 : en:Chapter 07
00:23:29.825 : en:Chapter 08
00:24:44.266 : en:Chapter 09
00:33:40.935 : en:Chapter 10
00:35:30.545 : en:Chapter 11
00:41:27.401 : en:Chapter 12
00:43:24.018 : en:Chapter 13
00:50:34.614 : en:Chapter 14
00:55:08.004 : en:Chapter 15
01:04:04.790 : en:Chapter 16
01:06:11.917 : en:Chapter 17
01:24:16.167 : en:Chapter 18
01:27:49.180 : en:Chapter 19
01:32:53.234 : en:Chapter 20
01:34:08.609 : en:Chapter 21

DOWNLOAD


PART01 |||| PART02 |||| PART03 |||| PART04

PART01 |||| PART02 |||| PART03 |||| PART04

PART01 |||| PART02 |||| PART03 |||| PART04

PART01 |||| PART02 |||| PART03 |||| PART04


Leave A Reply

Your email address will not be published.

%d bloggers like this: