โหลดหนัง HD MINI-HD SUPER-HQ Full-HD 1080p VIP Master Zoom ซูม หนังใหม่ ออนไลน์ มาสเตอร์ ไทย จีน ฝรั่ง การ์ตูน

[MINI-HD] BloodRayne (2005) ผ่าพิภพแวมไพร์ ภาค 1 [720p] [พากย์ไทย 5.1 + เสียงอังกฤษ 5.1] [DVDRip] [บรรยายไทย + อังกฤษ] [เสียงไทย + ซับไทย] [OPENLOAD]

0

โหลดหนัง  BloodRayne (2005) ผ่าพิภพแวมไพร์ ภาค 1

เรื่องย่อ BloodRayne (2005) ผ่าพิภพแวมไพร์ ภาค 1

เรย์น เป็นครึ่งมนุษย์ครึ่งแวมไพร์ ที่ถูกความทรงจำในวัยเด็กตามหลอนตลอด เพราะได้เห็นแม่ของตนเอง ถูกข่มขืนและฆาตกรรมอย่างทารุณ เมื่อเรย์นค้นพบว่าชายที่ฆ่าแม่ของเธอ แท้จริงแล้วคือ พ่อบังเกิดเกล้านาม คาแกน ราชาผู้ทรงอำนาจของเหล่าแวมไพร์ เธอจึงเริ่มออกปฏิบัติการทำลายล้างเขาด้วยกองทัพแวมไพร์และสมุนครึ่งมนุษย์ คาแกนวางแผนที่จะทำให้โลกถูกปกคลุมด้วยความมืดมิด เรย์นยอมรับในโชคชะตาและใช้ทักษะด้านการต่อสู้ รวมทั้งพลังอำนาจพิเศษในตัวเธอ ขัดขวางแผนการของ คาแกน ก่อนที่เขาจะทำลายล้างโลก

Complete name : [MINI-HD]_Bloodrayne.2005.720p.DVDRip.AC3.One2loadup.com.mkv
Format : Matroska
Format version : Version 4
File size : 4.11 GiB
Duration : 1 h 38 min
Overall bit rate mode : Variable
Overall bit rate : 5 956 kb/s
Movie name : Bloodrayne.2005.720p.DVDRip.AC3.One2loadup.com
Encoded date : UTC 2018-11-16 11:12:54
Writing application : mkvmerge v28.2.0 (‘The Awakening’) 64-bit
Writing library : libebml v1.3.6 + libmatroska v1.4.9

Video
ID : 1
Format : MPEG Video
Format version : Version 2
Format profile : [email protected]
Format settings : CustomMatrix / BVOP
Format settings, BVOP : Yes
Format settings, Matrix : Custom
Format settings, GOP : M=3, N=12
Codec ID : V_MPEG2
Codec ID/Info : MPEG 1 or 2 Video
Duration : 1 h 38 min
Bit rate mode : Variable
Bit rate : 5 053 kb/s
Maximum bit rate : 7 500 kb/s
Width : 720 pixels
Height : 480 pixels
Display aspect ratio : 16:9
Frame rate mode : Variable
Frame rate : 24.076 FPS
Original frame rate : 29.970 (30000/1001) FPS
Color space : YUV
Chroma subsampling : 4:2:0
Bit depth : 8 bits
Compression mode : Lossy
Bits/(Pixel*Frame) : 0.607
Time code of first frame : 00:59:59:20
Time code source : Group of pictures header
GOP, Open/Closed : Closed
Stream size : 3.48 GiB (85%)
Title : Bloodrayne.2005.720p.DVDRip.AC3.One2loadup.com
Language : English
Default : No
Forced : No

Audio #1
ID : 2
Format : AC-3
Format/Info : Audio Coding 3
Commercial name : Dolby Digital
Codec ID : A_AC3
Duration : 1 h 38 min
Bit rate mode : Constant
Bit rate : 448 kb/s
Channel(s) : 6 channels
Channel layout : L R C LFE Ls Rs
Sampling rate : 48.0 kHz
Frame rate : 31.250 FPS (1536 SPF)
Bit depth : 16 bits
Compression mode : Lossy
Stream size : 316 MiB (8%)
Title : Surround 5.1
Language : Thai
Service kind : Complete Main
Default : Yes
Forced : No

Audio #2
ID : 3
Format : AC-3
Format/Info : Audio Coding 3
Commercial name : Dolby Digital
Codec ID : A_AC3
Duration : 1 h 38 min
Bit rate mode : Constant
Bit rate : 448 kb/s
Channel(s) : 6 channels
Channel layout : L R C LFE Ls Rs
Sampling rate : 48.0 kHz
Frame rate : 31.250 FPS (1536 SPF)
Bit depth : 16 bits
Compression mode : Lossy
Stream size : 316 MiB (8%)
Title : Surround 5.1
Language : English
Service kind : Complete Main
Default : No
Forced : No

Text #1
ID : 4
Format : VobSub
Muxing mode : zlib
Codec ID : S_VOBSUB
Codec ID/Info : Picture based subtitle format used on DVDs
Duration : 1 h 25 min
Bit rate : 1 792 b/s
Count of elements : 712
Stream size : 1.09 MiB (0%)
Language : Thai
Default : Yes
Forced : No

Text #2
ID : 5
Format : VobSub
Muxing mode : zlib
Codec ID : S_VOBSUB
Codec ID/Info : Picture based subtitle format used on DVDs
Duration : 1 h 22 min
Bit rate : 2 617 b/s
Count of elements : 605
Stream size : 1.54 MiB (0%)
Language : English
Default : No
Forced : No

Menu
00:00:00.066 : en:Chapter 01
00:07:20.890 : en:Chapter 02
00:17:52.771 : en:Chapter 03
00:25:40.322 : en:Chapter 04
00:36:57.548 : en:Chapter 05
00:42:49.900 : en:Chapter 06
00:52:47.364 : en:Chapter 07
01:00:55.985 : en:Chapter 08
01:08:00.776 : en:Chapter 09
01:12:21.170 : en:Chapter 10
01:22:34.899 : en:Chapter 11
01:31:22.793 : en:Chapter 12

DOWNLOAD


PART01 |||| PART02 |||| PART03 |||| PART04 |||| PART05

PART01 |||| PART02 |||| PART03 |||| PART04 |||| PART05

PART01 |||| PART02 |||| PART03 |||| PART04 |||| PART05

PART01 |||| PART02 |||| PART03 |||| PART04 |||| PART05


Leave A Reply

Your email address will not be published.

%d bloggers like this: