โหลดหนัง HD MINI-HD SUPER-HQ Full-HD 1080p VIP Master Zoom ซูม หนังใหม่ ออนไลน์ มาสเตอร์ ไทย จีน ฝรั่ง การ์ตูน

[MINI-HD] Blood The Last Vampire (2009) ยัยตัวร้าย สายพันธุ์อมตะ [1080p] [พากย์ไทย 5.1 + อังกฤษ DTS] [บรรยายไทย + อังกฤษ] [เสียงไทย + ซับไทย] [ONE2UP]

0

โหลดหนัง  Blood The Last Vampire (2009) ยัยตัวร้าย สายพันธุ์อมตะ

เรื่องย่อ Blood The Last Vampire (2009) ยัยตัวร้าย สายพันธุ์อมตะ

ซายะ [Jeon Ji Hyun] ลูกครึ่งแวมไพร์ที่เกิดจากพ่อที่เป็นคนกับแม่ที่เป็นแวมไพร์หลังจากที่ต้องสูญเสียครอบครัวทั้งหมดเธอถูกเลี้ยงดูโดย คาโต้ [Yasuaki Kurata] ผู้เปรียบเสมือนพ่อและอาจารย์ของเธอ เวลาผ่านไปเธอต้องทนอยู่อย่างโดดเดี่ยวมานานนับศตวรรษโดยยึดหลักภารกิจเดียวคือทำลายล้างเหล่าแวมไพร์ให้หมดไปจากโลกนี้ซะ และเมื่อองค์กรลับในนาม สภา ภายใต้การดูแลของ ไมเคิล [Liam Cunningham] ได้มอบหมายให้เธอไปปฏิบัติภารกิจที่ฐานทัพสหรัฐฯ ในกรุงโตเกียว ซายะก็รู้ทันทีว่านี่คือโอกาสที่ได้ถอนรากถอนโคนนายใหญ่ผู้ชั่วร้ายของเหล่าแวมไพร์ โอนิเก็น [Koyuki] เธอเริ่มใช้พลังเหนือมนุษย์และดาบคู่กายตะลุยกวาดล้างความชั่วร้ายไปเรื่อย ๆ จนเธอเริ่มตระหนักถึงมิตรภาพที่มีต่อมนุษย์อย่าง อลิซ แม็คคี [Allison Miller] และยังเป็นครั้งแรกที่เธอเริ่มคิดได้ว่าพลังที่แกร่งกล้าควรถูกนำมาใช้เพื่อสร้างสัมพันธ์อันดีกับมวลมนุษย์มากกว่าการ

Complete name : C:\Users\Administrator\Desktop\Blood.The.Last.Vampire.2009.BDRip.H.264.1080p.DTS.One2loadup.com.mkv
Format : Matroska
Format version : Version 4 / Version 2
File size : 3.21 GiB
Duration : 1 h 28 min
Overall bit rate : 5 187 kb/s
Encoded date : UTC 2010-02-22 21:41:31
Writing application : mkvmerge v5.9.0 (‘On The Loose’) built on Dec 9 2012 15:37:01
Writing library : libebml v1.3.0 + libmatroska v1.4.0

Video
ID : 1
Format : AVC
Format/Info : Advanced Video Codec
Format profile : [email protected]
Format settings : CABAC / 4 Ref Frames
Format settings, CABAC : Yes
Format settings, ReFrames : 4 frames
Muxing mode : Header stripping
Codec ID : V_MPEG4/ISO/AVC
Duration : 1 h 28 min
Bit rate : 2 903 kb/s
Nominal bit rate : 3 084 kb/s
Width : 1 920 pixels
Height : 816 pixels
Display aspect ratio : 2.35:1
Frame rate mode : Constant
Frame rate : 23.976 (24000/1001) FPS
Color space : YUV
Chroma subsampling : 4:2:0
Bit depth : 8 bits
Scan type : Progressive
Bits/(Pixel*Frame) : 0.077
Stream size : 1.80 GiB (56%)
Title : Blood: The Last Vampire [2009] BDRip.H.264.1080p.DTS. By Pond
Writing library : x264 core 130 r2273 b3065e6
Encoding settings : cabac=1 / ref=4 / deblock=1:0:0 / analyse=0x3:0x133 / me=umh / subme=7 / psy=1 / psy_rd=1.00:0.00 / mixed_ref=1 / me_range=24 / chroma_me=1 / trellis=1 / 8x8dct=1 / cqm=0 / deadzone=21,11 / fast_pskip=1 / chroma_qp_offset=-2 / threads=6 / lookahead_threads=1 / sliced_threads=0 / nr=0 / decimate=1 / interlaced=0 / bluray_compat=0 / constrained_intra=0 / bframes=4 / b_pyramid=2 / b_adapt=2 / b_bias=0 / direct=1 / weightb=1 / open_gop=0 / weightp=2 / keyint=240 / keyint_min=24 / scenecut=40 / intra_refresh=0 / rc_lookahead=40 / rc=abr / mbtree=1 / bitrate=3084 / ratetol=1.0 / qcomp=0.60 / qpmin=0 / qpmax=69 / qpstep=4 / ip_ratio=1.40 / aq=1:1.00
Language : English
Default : Yes
Forced : No
Color range : Limited
Color primaries : BT.709
Transfer characteristics : BT.709
Matrix coefficients : BT.709

Audio #1
ID : 2
Format : AC-3
Format/Info : Audio Coding 3
Muxing mode : Header stripping
Codec ID : A_AC3
Duration : 1 h 28 min
Bit rate mode : Constant
Bit rate : 448 kb/s
Channel(s) : 6 channels
Channel positions : Front: L C R, Side: L R, LFE
Sampling rate : 48.0 kHz
Frame rate : 31.250 FPS (1536 SPF)
Bit depth : 16 bits
Compression mode : Lossy
Stream size : 284 MiB (9%)
Title : Thai AC.3 [448 Kbps]
Language : Thai
Service kind : Complete Main
Default : Yes
Forced : No

Audio #2
ID : 3
Format : DTS
Format/Info : Digital Theater Systems
Muxing mode : Header stripping
Codec ID : A_DTS
Duration : 1 h 28 min
Bit rate mode : Constant
Bit rate : 1 509 kb/s
Channel(s) : 6 channels
Channel positions : Front: L C R, Side: L R, LFE
Sampling rate : 48.0 kHz
Frame rate : 93.750 FPS (512 SPF)
Bit depth : 24 bits
Compression mode : Lossy
Stream size : 957 MiB (29%)
Title : English DTS. [1509 Kbps] From Bluray.
Language : English
Default : No
Forced : No

Audio #3
ID : 4
Format : AC-3
Format/Info : Audio Coding 3
Muxing mode : Header stripping
Codec ID : A_AC3
Duration : 1 h 28 min
Bit rate mode : Constant
Bit rate : 224 kb/s
Channel(s) : 2 channels
Channel positions : Front: L R
Sampling rate : 44.1 kHz
Frame rate : 28.711 FPS (1536 SPF)
Bit depth : 16 bits
Compression mode : Lossy
Stream size : 142 MiB (4%)
Title : English AC.3 [224 Kbps]
Language : English
Service kind : Complete Main
Default : No
Forced : No

Text #1
ID : 5
Format : VobSub
Muxing mode : zlib
Codec ID : S_VOBSUB
Codec ID/Info : Picture based subtitle format used on DVDs
Title : Thai 480p.
Language : Thai
Default : No
Forced : No

Text #2
ID : 6
Format : VobSub
Muxing mode : zlib
Codec ID : S_VOBSUB
Codec ID/Info : Picture based subtitle format used on DVDs
Title : Thai 1080p.
Language : Thai
Default : No
Forced : No

Text #3
ID : 7
Format : PGS
Muxing mode : zlib
Codec ID : S_HDMV/PGS
Codec ID/Info : Picture based subtitle format used on BDs/HD-DVDs
Title : Thai PGS.
Language : Thai
Default : No
Forced : No

Text #4
ID : 8
Format : VobSub
Muxing mode : zlib
Codec ID : S_VOBSUB
Codec ID/Info : Picture based subtitle format used on DVDs
Title : English 480p.
Language : English
Default : No
Forced : No

DOWNLOAD


PART01 |||| PART02 |||| PART03 |||| PART04

PART01 |||| PART02 |||| PART03 |||| PART04

PART01 |||| PART02 |||| PART03 |||| PART04

PART01 |||| PART02 |||| PART03 |||| PART04


Leave A Reply

Your email address will not be published.

%d bloggers like this: