[MINI-HD] Batman & Robin (1997) แบทแมน & โรบิน ภาค 4 [1080p] [พากย์ไทย 5.1 + เสียงอังกฤษ DTS] [บรรยายไทย + อังกฤษ] [เสียงไทย + ซับไทย] [OPENLOAD]

0

Batman & Robin (1997)

โหลดหนัง Batman & Robin (1997) แบทแมน & โรบิน ภาค 4

Batman & Robin (1997) 2h 5min | Action, Sci-Fi | 7 August 1997 (Netherlands) Summary: Batman and Robin try to keep their relationship together even as they must stop Mr. Freeze and Poison Ivy from freezing Gotham City.
Countries: USA, UKLanguages: English

เรื่องย่อ Batman & Robin (1997) แบทแมน & โรบิน ภาค 4

ก๊อตแธมซิตี้ต้องตกอยู่ในห้วงแห่งฝันร้ายภายใต้บรรยากาศเย็นยะเยือกสุดขั้ว Batman and Robin ทั่วทั้งเมืองกำลังจะแปรสภาพเป็นน้ำแข็งจากการกระทำของจอมวายร้าย มิสเตอร์ฟรีส (อาร์โนลด์ ชวาร์เซเน็กเกอร์) ที่ผนึกพลังความชั่วร้ายกับ พอยซั่น (อูม่า เธอร์แมน)เจ้าของจุมพิษมรณะ ภาระกิจอันหนักหน่วงของแบทแมนเริ่มขึ้นอีกครั้ง นอกเหนือจากการกอบกู้วิกฤตการณ์ในครั้งนี้เขายังต้องคอยช่วยเหลือสองผู้ช่วยหนุ่ม-สาว โรบิน (คริส โอคอนเนลล์) และแบทเกิร์ล (อลิเซีย ซิลเวอร์สโตน)ไม่ให้ตกหลุมพลางของวายร้ายทั้งสองอีก

Complete name : [MINI-HD]_Batman.and.Robin.720p.BrRip.DTS.x264.One2loadup.com.mkv
Format : Matroska
Format version : Version 4
File size : 3.62 GiB
Duration : 2 h 4 min
Overall bit rate : 4 145 kb/s
Movie name : [MINI-HD]_Batman.and.Robin.720p.BrRip.DTS.x264.One2loadup.com
Encoded date : UTC 2015-04-12 16:54:51
Writing application : mkvmerge v7.7.0 (‘Six Voices’) 64bit built on Feb 28 2015 23:39:33
Writing library : libebml v1.3.1 + libmatroska v1.4.2

Video
ID : 1
Format : AVC
Format/Info : Advanced Video Codec
Format profile : [email protected]
Format settings : CABAC / 3 Ref Frames
Format settings, CABAC : Yes
Format settings, ReFrames : 3 frames
Codec ID : V_MPEG4/ISO/AVC
Duration : 2 h 4 min
Bit rate : 2 200 kb/s
Width : 1 280 pixels
Height : 720 pixels
Display aspect ratio : 16:9
Frame rate mode : Constant
Frame rate : 23.976 FPS
Color space : YUV
Chroma subsampling : 4:2:0
Bit depth : 8 bits
Scan type : Progressive
Bits/(Pixel*Frame) : 0.100
Stream size : 1.90 GiB (53%)
Title : [MINI-HD]_Batman.and.Robin.720p.BrRip.DTS.x264.One2loadup.com
Writing library : x264 core 86 r1442M 781d300
Encoding settings : cabac=1 / ref=2 / deblock=1:0:0 / analyse=0x1:0 / me=hex / subme=7 / psy=1 / psy_rd=1.00:0.00 / mixed_ref=0 / me_range=16 / chroma_me=0 / trellis=0 / 8x8dct=0 / cqm=0 / deadzone=21,11 / fast_pskip=0 / chroma_qp_offset=-2 / threads=8 / sliced_threads=0 / nr=0 / decimate=1 / interlaced=0 / constrained_intra=0 / bframes=3 / b_pyramid=1 / b_adapt=1 / b_bias=0 / direct=3 / wpredb=1 / wpredp=0 / keyint=230 / keyint_min=23 / scenecut=40 / intra_refresh=0 / rc=abr / mbtree=0 / bitrate=2200 / ratetol=0.2 / qcomp=0.60 / qpmin=10 / qpmax=51 / qpstep=4 / ip_ratio=1.41 / pb_ratio=1.25 / aq=1:1.00 / pulldown=0
Language : English
Default : Yes
Forced : No

Audio #1
ID : 2
Format : AC-3
Format/Info : Audio Coding 3
Commercial name : Dolby Digital
Codec ID : A_AC3
Duration : 2 h 4 min
Bit rate mode : Constant
Bit rate : 448 kb/s
Channel(s) : 6 channels
Channel layout : L R C LFE Ls Rs
Sampling rate : 48.0 kHz
Frame rate : 31.250 FPS (1536 SPF)
Bit depth : 16 bits
Compression mode : Lossy
Delay relative to video : 1 s 800 ms
Stream size : 400 MiB (11%)
Title : Thai 5.1 ch
Language : Thai
Service kind : Complete Main
Default : Yes
Forced : No

Audio #2
ID : 3
Format : DTS
Format/Info : Digital Theater Systems
Codec ID : A_DTS
Duration : 2 h 4 min
Bit rate mode : Constant
Bit rate : 1 510 kb/s
Channel(s) : 6 channels
Channel layout : C L R Ls Rs LFE
Sampling rate : 48.0 kHz
Frame rate : 93.750 FPS (512 SPF)
Bit depth : 24 bits
Compression mode : Lossy
Stream size : 1.32 GiB (36%)
Title : Eng DTS
Language : English
Default : No
Forced : No

Text #1
ID : 4
Format : VobSub
Muxing mode : zlib
Codec ID : S_VOBSUB
Codec ID/Info : Picture based subtitle format used on DVDs
Duration : 1 h 57 min
Bit rate : 1 465 b/s
Count of elements : 1160
Stream size : 1.23 MiB (0%)
Title : Thai
Language : Thai
Default : Yes
Forced : No

Text #2
ID : 5
Format : VobSub
Muxing mode : zlib
Codec ID : S_VOBSUB
Codec ID/Info : Picture based subtitle format used on DVDs
Duration : 1 h 57 min
Bit rate : 1 230 b/s
Count of elements : 1170
Stream size : 1.03 MiB (0%)
Language : English
Default : No
Forced : No

Text #3
ID : 6
Format : VobSub
Muxing mode : zlib
Codec ID : S_VOBSUB
Codec ID/Info : Picture based subtitle format used on DVDs
Duration : 1 h 57 min
Bit rate : 1 230 b/s
Count of elements : 1170
Stream size : 1.03 MiB (0%)
Title : Eng
Language : English
Default : No
Forced : No

 

DOWNLOAD


PART01 |||| PART02 |||| PART03 |||| PART04

PART01 |||| PART02 |||| PART03 |||| PART04

PART01 |||| PART02 |||| PART03 |||| PART04

PART01 |||| PART02 |||| PART03 |||| PART04


Leave A Reply

Your email address will not be published.