[MINI-HD] Batman (1989) แบทแมน ภาค 1 [1080p] [พากย์ไทย 5.1 + เสียงอังกฤษ DTS] [บรรยายไทย + อังกฤษ] [เสียงไทย + ซับไทย] [OPENLOAD]

0

โหลดหนัง Batman (1989) แบทแมน ภาค 1

Batman (1989) 2h 6min | Action, Adventure | 29 September 1989 (Netherlands) Summary: The Dark Knight of Gotham City begins his war on crime with his first major enemy being the clownishly homicidal Joker.
Countries: USA, UKLanguages: English, French, Spanish

เรื่องย่อ Batman (1989) แบทแมน ภาค 1

เจ้าชายแห่งรัตติกาล Batman 1 อยู่ที่เมืองก็อธแธม เมืองที่เต็มไปด้วยอาชญากรรม ภยันตรายรอบด้าน และการคอรัปชันของบุคคลในเครื่องแบบรวมถึงการเข้าครอบงำของ โจ๊กเกอร์ ศัตรูคู่อาฆาตตลอดกาลของแบทแมน ความหวังเดียวที่จะทำให้ชาวเมืองก็อธแธมหลุดพ้นจากความชั่วร้ายเหล่านี้ ต้องฝากไว้ในมือของชายหนุ่มที่ชื่อ บรู๊ซ เวย์น แบทแมน 1989

Complete name : [MINI-HD]_Batman.1989.720p.BrRip.DTS.x264.One2loadup.com.mkv
Format : Matroska
Format version : Version 4
File size : 3.67 GiB
Duration : 2 h 6 min
Overall bit rate : 4 157 kb/s
Movie name : [MINI-HD]_Batman.1989.720p.BrRip.DTS.x264.One2loadup.com
Encoded date : UTC 2015-04-12 16:49:11
Writing application : mkvmerge v7.7.0 (‘Six Voices’) 64bit built on Feb 28 2015 23:39:33
Writing library : libebml v1.3.1 + libmatroska v1.4.2

Video
ID : 1
Format : AVC
Format/Info : Advanced Video Codec
Format profile : [email protected]
Format settings : CABAC / 3 Ref Frames
Format settings, CABAC : Yes
Format settings, ReFrames : 3 frames
Codec ID : V_MPEG4/ISO/AVC
Duration : 2 h 6 min
Bit rate : 2 200 kb/s
Width : 1 280 pixels
Height : 720 pixels
Display aspect ratio : 16:9
Frame rate mode : Constant
Frame rate : 23.976 FPS
Color space : YUV
Chroma subsampling : 4:2:0
Bit depth : 8 bits
Scan type : Progressive
Bits/(Pixel*Frame) : 0.100
Stream size : 1.94 GiB (53%)
Title : [MINI-HD]_Batman.1989.720p.BrRip.DTS.x264.One2loadup.com
Writing library : x264 core 86 r1442M 781d300
Encoding settings : cabac=1 / ref=2 / deblock=1:0:0 / analyse=0x1:0 / me=hex / subme=7 / psy=1 / psy_rd=1.00:0.00 / mixed_ref=0 / me_range=16 / chroma_me=0 / trellis=0 / 8x8dct=0 / cqm=0 / deadzone=21,11 / fast_pskip=0 / chroma_qp_offset=-2 / threads=8 / sliced_threads=0 / nr=0 / decimate=1 / interlaced=0 / constrained_intra=0 / bframes=3 / b_pyramid=1 / b_adapt=1 / b_bias=0 / direct=3 / wpredb=1 / wpredp=0 / keyint=230 / keyint_min=23 / scenecut=40 / intra_refresh=0 / rc=abr / mbtree=0 / bitrate=2200 / ratetol=0.2 / qcomp=0.60 / qpmin=10 / qpmax=51 / qpstep=4 / ip_ratio=1.41 / pb_ratio=1.25 / aq=1:1.00 / pulldown=0
Language : English
Default : Yes
Forced : No

Audio #1
ID : 2
Format : AC-3
Format/Info : Audio Coding 3
Commercial name : Dolby Digital
Codec ID : A_AC3
Duration : 2 h 6 min
Bit rate mode : Constant
Bit rate : 448 kb/s
Channel(s) : 6 channels
Channel layout : L R C LFE Ls Rs
Sampling rate : 48.0 kHz
Frame rate : 31.250 FPS (1536 SPF)
Bit depth : 16 bits
Compression mode : Lossy
Delay relative to video : 1 s 871 ms
Stream size : 405 MiB (11%)
Title : Thai 5.1 ch
Language : Thai
Service kind : Complete Main
Default : Yes
Forced : No

Audio #2
ID : 3
Format : DTS
Format/Info : Digital Theater Systems
Codec ID : A_DTS
Duration : 2 h 6 min
Bit rate mode : Constant
Bit rate : 1 510 kb/s
Channel(s) : 6 channels
Channel layout : C L R Ls Rs LFE
Sampling rate : 48.0 kHz
Frame rate : 93.750 FPS (512 SPF)
Bit depth : 24 bits
Compression mode : Lossy
Stream size : 1.33 GiB (36%)
Title : Eng DTS – 1536 kbit/sec
Language : English
Default : No
Forced : No

Text #1
ID : 4
Format : VobSub
Muxing mode : zlib
Codec ID : S_VOBSUB
Codec ID/Info : Picture based subtitle format used on DVDs
Duration : 2 h 5 min
Bit rate : 1 580 b/s
Count of elements : 1077
Stream size : 1.42 MiB (0%)
Title : Thai
Language : Thai
Default : Yes
Forced : No

Text #2
ID : 5
Format : UTF-8
Codec ID : S_TEXT/UTF8
Codec ID/Info : UTF-8 Plain Text
Duration : 1 h 58 min
Bit rate : 32 b/s
Count of elements : 955
Stream size : 28.6 KiB (0%)
Title : Eng
Language : English
Default : No
Forced : No

DOWNLOAD


PART01 |||| PART02 |||| PART03 |||| PART04

PART01 |||| PART02 |||| PART03 |||| PART04

PART01 |||| PART02 |||| PART03 |||| PART04

PART01 |||| PART02 |||| PART03 |||| PART04


Leave A Reply

Your email address will not be published.

%d bloggers like this: