[MINI-HD] ATM: Er Rak Error (2012) ATM เออรัก เออเร่อ [1080p] [พากย์ไทย 2.0] [บรรยายอังกฤษ] [เสียงไทย + ซับอังกฤษ] [OPENLOAD]

2

ATM: Er Rak Error (2012) ATM เออรัก เออเร่อ

โหลดหนัง ATM: Er Rak Error (2012) ATM เออรัก เออเร่อ

ATM: Er Rak Error (2012) 2h 3min | Comedy, Romance | 19 January 2012 (Thailand) Summary: Sua (Ter - Chantavit Dhnasevi) and Jib (Ice - Preechaya Pongthananikorn) are like any other couple in this world except for one exception: for the past 5 years they have kept their ... See full summary »
Countries: ThailandLanguages: Thai

เรื่องย่อ ATM: Er Rak Error (2012) ATM เออรัก เออเร่อ

เสือ กับ จิ๊บ พนักงานธนาคาร JNBC แอบลักลอบคบกันเป็นเวลาเกือบ 5 ปี โดยที่ไม่มีใครรู้ เพราะธนาคารนี้มีกฎเหล็ก “ห้ามพนักงานเป็นแฟนกัน” ความอดทนมันมาถึงขีดจำกัดตรงที่ว่าถ้าจะแต่งงาน ใครซักคนก็ต้องยอม “ลาออก” แต่งานนี้ไม่มีใครยอมลาออกง่ายๆ จนกระทั่งเกิดเหตุไม่คาดฝัน เมื่อตู้เอทีเอ็มที่ชลบุรีเกิด “เออเร่อ” จ่ายเงินเกินไป 130,000!!! คู่รักจึงต้องกลายมาเป็นคู่แข่ง ในเดิมพันไล่ล่าตามหาตัวมือมืดที่ได้เงินเกินไปจากเอทีเอ็ม โดยมีเงื่อนไขว่าใครตามเงินได้ครบก่อน อีกฝ่ายต้องยอมลาออก! สงครามระหว่างหนุ่มสาวออฟฟิศคู่นี้จึงเริ่มต้นขึ้นโดยมีตำแหน่งหน้าที่การงานเป็นเดิมพัน!!

Complete name : [MINI-HD]_ATM.Er.Rak.Error.2012.1080p.One2loadup.com.mp4
Format : MPEG-4
Format profile : Base Media / Version 2
Codec ID : mp42 (mp42/isom)
File size : 4.70 GiB
Duration : 1 h 57 min
Overall bit rate mode : Variable
Overall bit rate : 5 706 kb/s
Movie name : ATM เออรัก..เออเร่อ
Performer : Mez Tharatorn
Performer/Sorted by : Mez Tharatorn
Director : Mez Tharatorn
Actor : Chantavit Dhanasevi / Preechaya Pongthananikorn
Production studio : GMM TAI HUB CO., LTD.
Genre : โรแมนติก
ContentType : Short Film
Description : เสือกับจิ๊บพนักงานธนาคาร JNBC แอบลักลอบคบกันเป็นเวลาเกือบ 5 ปีโดยที่ไม่มีใครรู้
Recorded date : UTC 2012-01-19 08:00:00
Encoded date : UTC 2016-09-30 09:10:10
Tagged date : UTC 2016-09-30 10:22:11
Cover : Yes
PurchaseDate : 2016-04-08 17:54:33
AppleStoreCatalogID : 920649722
GenreID : 4412
ContentRating : th-movie|ท ทั่วไป|100|

Video
ID : 3
Format : AVC
Format/Info : Advanced Video Codec
Format profile : [email protected]
Format settings : CABAC / 2 Ref Frames
Format settings, CABAC : Yes
Format settings, ReFrames : 2 frames
Format settings, GOP : M=1, N=120
Codec ID : avc1
Codec ID/Info : Advanced Video Coding
Duration : 1 h 57 min
Bit rate mode : Variable
Bit rate : 5 194 kb/s
Maximum bit rate : 768 kb/s
Width : 1 920 pixels
Height : 1 080 pixels
Display aspect ratio : 16:9
Frame rate mode : Constant
Frame rate : 25.000 FPS
Color space : YUV
Chroma subsampling : 4:2:0
Bit depth : 8 bits
Scan type : Progressive
Bits/(Pixel*Frame) : 0.100
Stream size : 4.28 GiB (91%)
Language : English
Encoded date : UTC 2016-09-30 09:34:29
Tagged date : UTC 2016-09-30 10:21:36
Codec configuration box : avcC

Audio #1
ID : 1
Format : AAC LC
Format/Info : Advanced Audio Codec Low Complexity
Codec ID : mp4a-40-2
Duration : 1 h 57 min
Duration_LastFrame : -11 ms
Bit rate mode : Variable
Bit rate : 125 kb/s
Maximum bit rate : 209 kb/s
Channel(s) : 2 channels
Channel layout : L R
Sampling rate : 48.0 kHz
Frame rate : 46.875 FPS (1024 SPF)
Compression mode : Lossy
Stream size : 106 MiB (2%)
Language : Thai
Default : Yes
Alternate group : 1
Encoded date : UTC 2016-09-30 09:10:12
Tagged date : UTC 2016-09-30 09:24:16
Menus : 5

Audio #2
ID : 2
Format : AC-3
Format/Info : Audio Coding 3
Commercial name : Dolby Digital
Codec ID : ac-3
Duration : 1 h 57 min
Bit rate mode : Constant
Bit rate : 384 kb/s
Channel(s) : 6 channels
Channel layout : L R C LFE Ls Rs
Sampling rate : 48.0 kHz
Frame rate : 31.250 FPS (1536 SPF)
Bit depth : 16 bits
Compression mode : Lossy
Stream size : 324 MiB (7%)
Language : Thai
Service kind : Complete Main
Default : No
Alternate group : 1
Encoded date : UTC 2016-09-30 09:24:17
Tagged date : UTC 2016-09-30 09:34:28

Text
ID : 4
Format : Timed Text
Muxing mode : sbtl
Codec ID : tx3g
Duration : 1 h 51 min
Bit rate mode : Variable
Bit rate : 81 b/s
Stream size : 66.2 KiB (0%)
Language : English
Default : Yes
Forced : No
Alternate group : 2
Encoded date : UTC 2016-09-30 10:21:36
Tagged date : UTC 2016-09-30 10:22:09

Menu
ID : 5
Codec ID : text
Duration : 1 h 57 min
Encoded date : UTC 2016-09-30 10:22:11
Tagged date : UTC 2016-09-30 10:22:11
Menu For : 1
00:00:00.000 : 1
00:05:59.000 : 2
00:12:32.000 : 3
00:18:16.000 : 4
00:24:21.000 : 5
00:30:18.000 : 6
00:35:26.000 : 7
00:42:19.000 : 8
00:48:54.000 : 9
00:54:31.000 : 10
01:01:34.000 : 11
01:06:02.000 : 12
01:12:11.000 : 13
01:18:52.000 : 14
01:23:53.000 : 15
01:29:56.000 : 16
01:36:19.000 : 17
01:42:17.000 : 18
01:52:40.000 : 19
Bit rate mode : VBR

DOWNLOAD


PART01 |||| PART02 |||| PART03 |||| PART04 |||| PART05

PART01 |||| PART02 |||| PART03 |||| PART04 |||| PART05

PART01 |||| PART02 |||| PART03 |||| PART04 |||| PART05

PART01 |||| PART02 |||| PART03 |||| PART04 |||| PART05


2 Comments
  1. 3 o y s c o u t z
    3 o y s c o u t z says

    โหลดไม่ได้ ไม่เข้าหน้าดาวน์โหลดไฟล์เลย

    1. Admin
      Admin says

      ทดสอบแล้วโหลดได้ปกติ

Leave A Reply

Your email address will not be published.

%d bloggers like this: