โหลดหนัง HD MINI-HD SUPER-HQ Full-HD 1080p VIP Master Zoom ซูม หนังใหม่ ออนไลน์ มาสเตอร์ ไทย จีน ฝรั่ง การ์ตูน

[MINI-HD] As Above So Below (2014) แดนหลอนสยองใต้โลก [1080p] [พากย์ไทย 5.1 + อังกฤษ DTS] [บรรยายไทย + อังกฤษ] [เสียงไทย + ซับไทย] [ONE2UP]

2

As Above So Below (2014) แดนหลอนสยองใต้โลก

โหลดหนัง As Above So Below (2014) แดนหลอนสยองใต้โลก

เรื่องย่อ As Above So Below (2014) แดนหลอนสยองใต้โลก

สการ์เล็ตและเหล่านักสำรวจ เดินทางลงไปสู่สุสานใต้ดินที่อยู่ใต้ท้องถนนในกรุงปารีส ซึ่งเต็มไปด้วยกองกระดูกมนุษย์และเป็นที่สิงสถิตของวิญญาณนับล้าน การเดินทางครั้งนี้ไม่ได้เป็นเพียงการผจญภัยเพื่อค้น หาปริศนาสำคัญที่หายไปในประวัติศาสตร์เท่านั้น แต่กลับกลายเป็นการเดินทางสู่นครแห่งความตายที่เต็มไปด้วยความบ้าคลั่งและความสยดสยอง พวกเขาต้องเผชิญกับบางสิ่งบางอย่างที่ตามหลอกหลอนและจ้องจะพรากชีวิตของพวกเขา

Complete name : [MINI-HD]_As.Above.So.Below.2014.BluRay.1080p.DTS.x264.One2loadup.com.mkv
Format : Matroska
Format version : Version 4 / Version 2
File size : 3.17 GiB
Duration : 1 h 33 min
Overall bit rate : 4 872 kb/s
Movie name : [MINI-HD]_As.Above.So.Below.2014.BluRay.1080p.DTS.x264.One2loadup.com
Encoded date : UTC 2014-12-14 04:33:42
Writing application : mkvmerge v6.2.0 (‘Promised Land’) built on Apr 28 2013 12:22:01
Writing library : libebml v1.3.0 + libmatroska v1.4.0

Video
ID : 1
Format : AVC
Format/Info : Advanced Video Codec
Format profile : [email protected]
Format settings : CABAC / 4 Ref Frames
Format settings, CABAC : Yes
Format settings, ReFrames : 4 frames
Codec ID : V_MPEG4/ISO/AVC
Duration : 1 h 33 min
Bit rate : 2 500 kb/s
Width : 1 920 pixels
Height : 1 040 pixels
Display aspect ratio : 1.85:1
Frame rate mode : Constant
Frame rate : 23.976 (23976/1000) FPS
Color space : YUV
Chroma subsampling : 4:2:0
Bit depth : 8 bits
Scan type : Progressive
Bits/(Pixel*Frame) : 0.052
Stream size : 1.63 GiB (51%)
Title : [MINI-HD]_As.Above.So.Below.2014.BluRay.1080p.DTS.x264.One2loadup.com
Writing library : x264 core 142 r2491M 24e4fed
Encoding settings : cabac=1 / ref=4 / deblock=1:-1:-1 / analyse=0x3:0x113 / me=umh / subme=9 / psy=1 / psy_rd=1.00:0.15 / mixed_ref=1 / me_range=24 / chroma_me=1 / trellis=2 / 8x8dct=1 / cqm=0 / deadzone=21,11 / fast_pskip=1 / chroma_qp_offset=-3 / threads=32 / lookahead_threads=4 / sliced_threads=0 / nr=0 / decimate=1 / interlaced=0 / bluray_compat=0 / constrained_intra=0 / bframes=3 / b_pyramid=2 / b_adapt=1 / b_bias=0 / direct=1 / weightb=1 / open_gop=0 / weightp=2 / keyint=250 / keyint_min=25 / scenecut=40 / intra_refresh=0 / rc_lookahead=50 / rc=2pass / mbtree=1 / bitrate=2500 / ratetol=1.0 / qcomp=0.60 / qpmin=0 / qpmax=69 / qpstep=4 / cplxblur=20.0 / qblur=0.5 / vbv_maxrate=31250 / vbv_bufsize=31250 / nal_hrd=none / filler=0 / ip_ratio=1.40 / aq=3:1.00
Language : English
Default : Yes
Forced : No
Statistics Tags Issue : mkvmerge v7.3.0 (‘Nouages’) 64bit built on Oct 22 2014 18:53:34 2014-11-20 23:37:05 / mkvmerge v6.2.0 (‘Promised Land’) built on Apr 28 2013 12:22:01 2014-12-14 04:33:42
FromStats_BitRate : 2499794
FromStats_Duration : 01:33:08.547000000
FromStats_FrameCount : 133991
FromStats_StreamSize : 1746277265

Audio #1
ID : 2
Format : DTS
Format/Info : Digital Theater Systems
Codec ID : A_DTS
Duration : 1 h 33 min
Bit rate mode : Constant
Bit rate : 768 kb/s
Channel(s) : 6 channels
Channel positions : Front: L C R, Side: L R, LFE
Sampling rate : 48.0 kHz
Frame rate : 93.750 FPS (512 SPF)
Bit depth : 24 bits
Compression mode : Lossy
Stream size : 512 MiB (16%)
Title : [THAI DTS FROM BLU-RAY MASTER]
Language : Thai
Default : Yes
Forced : No

Audio #2
ID : 3
Format : DTS
Format/Info : Digital Theater Systems
Codec ID : A_DTS
Duration : 1 h 33 min
Bit rate mode : Constant
Bit rate : 1 509 kb/s
Channel(s) : 6 channels
Channel positions : Front: L C R, Side: L R, LFE
Sampling rate : 48.0 kHz
Frame rate : 93.750 FPS (512 SPF)
Bit depth : 24 bits
Compression mode : Lossy
Stream size : 1 005 MiB (31%)
Title : eng dts
Language : English
Default : No
Forced : No

Text #1
ID : 4
Format : VobSub
Codec ID : S_VOBSUB
Codec ID/Info : Picture based subtitle format used on DVDs
Title : [SUB THAI 480P FROM BLU-RAY]
Language : Thai
Default : No
Forced : No

Text #2
ID : 5
Format : VobSub
Codec ID : S_VOBSUB
Codec ID/Info : Picture based subtitle format used on DVDs
Title : [SUB THAI 480P FROM BLU-RAY] YELLOW
Language : Thai
Default : No
Forced : No

Text #3
ID : 6
Format : VobSub
Codec ID : S_VOBSUB
Codec ID/Info : Picture based subtitle format used on DVDs
Title : [SUB THAI 1080P FROM BLU-RAY]
Language : Thai
Default : No
Forced : No

Text #4
ID : 7
Format : PGS
Codec ID : S_HDMV/PGS
Codec ID/Info : Picture based subtitle format used on BDs/HD-DVDs
Title : [SUB THAI PGS FROM BLU-RAY]
Language : Thai
Default : No
Forced : No

Text #5
ID : 8
Format : PGS
Codec ID : S_HDMV/PGS
Codec ID/Info : Picture based subtitle format used on BDs/HD-DVDs
Title : [SUB ENG PGS FROM BLU-RAY]
Language : English
Default : No
Forced : No

Text #6
ID : 9
Format : UTF-8
Codec ID : S_TEXT/UTF8
Codec ID/Info : UTF-8 Plain Text
Title : Full
Language : English
Default : No
Forced : No

Text #7
ID : 10
Format : UTF-8
Codec ID : S_TEXT/UTF8
Codec ID/Info : UTF-8 Plain Text
Title : SDH
Language : English
Default : No
Forced : No

Text #8
ID : 11
Format : UTF-8
Codec ID : S_TEXT/UTF8
Codec ID/Info : UTF-8 Plain Text
Title : SDH, Colored
Language : English
Default : No
Forced : No

Menu
00:00:00.000 : en:00:00:00.000
00:07:00.045 : en:00:07:00.045
00:09:42.749 : en:00:09:42.749
00:13:18.673 : en:00:13:18.673
00:18:37.074 : en:00:18:37.074
00:22:33.352 : en:00:22:33.352
00:24:42.815 : en:00:24:42.815
00:29:38.777 : en:00:29:38.777
00:33:03.857 : en:00:33:03.857
00:37:17.777 : en:00:37:17.777
00:43:05.333 : en:00:43:05.333
00:47:07.491 : en:00:47:07.491
00:53:20.739 : en:00:53:20.739
00:59:00.328 : en:00:59:00.328
01:05:33.555 : en:01:05:33.555
01:11:40.213 : en:01:11:40.213
01:16:05.603 : en:01:16:05.603
01:20:20.733 : en:01:20:20.733
01:26:02.616 : en:01:26:02.616
01:27:57.189 : en:01:27:57.189

DOWNLOAD


PART01 |||| PART02 |||| PART03 |||| PART04

PART01 |||| PART02 |||| PART03 |||| PART04

PART01 |||| PART02 |||| PART03 |||| PART04

PART01 |||| PART02 |||| PART03 |||| PART04


2 Comments
  1. 3 o y s c o u t z
    3 o y s c o u t z says

    ทำไมภาพมันแปลกๆอะครับ? เหมือนไม่ใช่
    Width : 1 920 pixels
    Height : 1 040 pixels
    เลยครับ

    1. Admin
      Admin says

      เป็นข้อมูลของหนังเอง นะฮ๊ะ
      Duration : 1 h 33 min
      Bit rate : 2 500 kb/s
      Width : 1 920 pixels
      Height : 1 040 pixels

Leave A Reply

Your email address will not be published.

%d bloggers like this: