โหลดหนัง HD MINI-HD SUPER-HQ Full-HD 1080p VIP Master Zoom ซูม หนังใหม่ ออนไลน์ มาสเตอร์ ไทย จีน ฝรั่ง การ์ตูน

[MINI-HD] Ali (2001) อาลี กำปั้นท้าชนโลก [720p] [พากย์ไทย 5.1 + เสียงอังกฤษ 5.1] [ บรรยายไทย + อังกฤษ] [DVDRIP] [Master] [พากย์ไทย + ซับไทย] [ONE2UP]

3

โหลดหนัง  Ali (2001) อาลี กำปั้นท้าชนโลก

เรื่องย่อ Ali (2001) อาลี กำปั้นท้าชนโลก

Will Smith กับบทบาทของนักชกสุภาพบุรุษ มูฮัมหมัด อาลี ภาพยนตร์นำเสนอตั้งแต่อาลียังมีอายุเพียง 22 ปี ซึ่งทำให้ได้เห็นนักสู้คนหนึ่งที่ต่อสู้ทุกทางเพื่อร ักษาจุดยืนและศรัทธาของตน จนได้รับการตอบแทนอันยิ่งใหญ่ในท้ายที่สุด

Complete name : [MINI-HD]_Ali.2001.720p.DVDRip.One2loadup.com.mkv
Format : Matroska
Format version : Version 2
File size : 4.25 GiB
Duration : 2 h 44 min
Overall bit rate mode : Variable
Overall bit rate : 3 691 kb/s
Encoded date : UTC 2017-11-21 11:18:44

Video
ID : 1
ID in the original source m : 224 (0xE0)
Format : MPEG Video
Format version : Version 2
Format profile : [email protected]
Format settings, BVOP : Yes
Format settings, Matrix : Custom
Format settings, GOP : Variable
Format settings, picture st : Frame
Codec ID : V_MPEG2
Codec ID/Info : MPEG 1 or 2 Video
Duration : 2 h 44 min
Bit rate mode : Variable
Bit rate : 2 783 kb/s
Maximum bit rate : 6 714 kb/s
Width : 720 pixels
Height : 480 pixels
Display aspect ratio : 16:9
Frame rate mode : Constant
Frame rate : 29.970 (30000/1001) FPS
Standard : NTSC
Color space : YUV
Chroma subsampling : 4:2:0
Bit depth : 8 bits
Scan type : Interlaced
Scan order : Top Field First
Compression mode : Lossy
Bits/(Pixel*Frame) : 0.269
Time code of first frame : 00:00:00:00
Time code source : Group of pictures header
GOP, Open/Closed : Open
GOP, Open/Closed of first f : Closed
Stream size : 3.20 GiB (75%)
Language : English
Default : No
Forced : No

Audio #1
ID : 2
ID in the original source m : 189 (0xBD)128 (0x80)
Format : AC-3
Format/Info : Audio Coding 3
Format settings, Endianness : Big
Codec ID : A_AC3
Duration : 2 h 44 min
Bit rate mode : Constant
Bit rate : 448 kb/s
Channel(s) : 6 channels
Channel positions : Front: L C R, Side: L R, LFE
Sampling rate : 48.0 kHz
Frame rate : 31.250 FPS (1536 SPF)
Bit depth : 16 bits
Compression mode : Lossy
Stream size : 528 MiB (12%)
Title : Surround 5.1
Language : Thai
Service kind : Complete Main
Default : Yes
Forced : No

Audio #2
ID : 3
ID in the original source m : 189 (0xBD)129 (0x81)
Format : AC-3
Format/Info : Audio Coding 3
Format settings, Endianness : Big
Codec ID : A_AC3
Duration : 2 h 44 min
Bit rate mode : Constant
Bit rate : 448 kb/s
Channel(s) : 6 channels
Channel positions : Front: L C R, Side: L R, LFE
Sampling rate : 48.0 kHz
Frame rate : 31.250 FPS (1536 SPF)
Bit depth : 16 bits
Compression mode : Lossy
Stream size : 528 MiB (12%)
Title : Surround 5.1
Language : English
Service kind : Complete Main
Default : No
Forced : No

Text #1
ID : 4
ID in the original source m : 189 (0xBD)32 (0x20)
Format : VobSub
Codec ID : S_VOBSUB
Codec ID/Info : Picture based subtitle format used on DVDs
Duration : 2 h 39 min
Bit rate : 2 487 b/s
Count of elements : 1560
Stream size : 2.83 MiB (0%)
Language : Thai
Default : Yes
Forced : No

Text #2
ID : 5
ID in the original source m : 189 (0xBD)33 (0x21)
Format : VobSub
Codec ID : S_VOBSUB
Codec ID/Info : Picture based subtitle format used on DVDs
Duration : 2 h 37 min
Bit rate : 4 161 b/s
Count of elements : 1687
Stream size : 4.69 MiB (0%)
Language : English
Default : No
Forced : No

Menu
00:00:00.000 : en:Chapter 01
00:13:53.699 : en:Chapter 02
00:28:53.565 : en:Chapter 03
00:42:25.643 : en:Chapter 04
00:56:27.217 : en:Chapter 05
01:10:33.229 : en:Chapter 06
01:24:12.614 : en:Chapter 07
01:38:34.475 : en:Chapter 08
01:51:41.795 : en:Chapter 09
02:06:26.078 : en:Chapter 10
02:34:31.629 : en:Chapter 11
02:39:32.763 : en:Chapter 12



PART01 |||| PART02 |||| PART03 |||| PART04 |||| PART05

PART01 |||| PART02 |||| PART03 |||| PART04 |||| PART05


PART01 |||| PART02 |||| PART03 |||| PART04 |||| PART05


PART01 |||| PART02 |||| PART03 |||| PART04 |||| PART05


3 Comments
  1. tongbong says

    ขอบคุณครับ one2loadup.comนี่สุดยอดดดดดดดดดดดดดดดดดจริงๆเลย
    ขอหนังดู ก็ใจดีจัดให้…

  2. tongbong says

    เรื่องนี้แสดงดีมาก ถ่ายทำเหมือนจริงมาก

  3. Herobarua
    Herobarua says

    โหลดไม่ได้ครับโดนลบหมดเลยVIP

Leave A Reply

Your email address will not be published.

%d bloggers like this: