โหลดหนัง HD MINI-HD SUPER-HQ Full-HD 1080p VIP Master Zoom ซูม หนังใหม่ ออนไลน์ มาสเตอร์ ไทย จีน ฝรั่ง การ์ตูน

[MINI-HD] เดี่ยวไมโครโฟน 12 (2018) Disc 1-2 [720p] [พากย์ไทย 5.1] [DVDRip] [ซับไทย + อังกฤษ] [OPENLOAD]

โหลดหนัง  เดี่ยวไมโครโฟน 12 (2018) Disc 1-2

เรื่องย่อ เดี่ยวไมโครโฟน 12 (2018) Disc 1-2

เดี่ยว 12 สมการความบันเทิงที่กำลังจะกลับมาเยือนอีกครั้ง 12=23 กับสแตนอัพคอมเมเดี้ยนคนนี้ ที่มอบความสุขให้กับชาวไทยมาแล้วร่วม 23 ปี 23 ปีที่ อุดม แต้พานิช บอกเล่าเรื่องราวชีวิต มุมมอง ทัศนคติ ให้เราได้ขบคิดและขำขัน หากเปรียบ 23 ปีเป็นช่วงอายุ เราคงได้เห็นคนๆ หนึ่งที่เดินทางผ่านมาตั้งแต่ยุคที่มือถือยังไม่ก่อกำเนิดบนโลก จนมาถึงยุคที่ไม่มีที่ไหนบนโลกที่ไม่มีมือถือ หลากหลายเทคโนโลยีและการเปลี่ยนแปลงทางสังคม ที่ผู้ชมและอุดมผ่านมาด้วยกัน มาร่วมหัวเราะกับชีวิตของพวกเราไปพร้อมๆ อุดม ในเดี่ยว 12

Complete name : DIEW.12.Disc.1.720p.DVDRip.AC3.x264.One2loadup.com.mkv
Format : Matroska
Format version : Version 4
File size : 3.79 GiB
Duration : 1 h 39 min
Overall bit rate : 5 469 kb/s
Movie name : DIEW.12.Disc.1.720p.DVDRip.AC3.x264.One2loadup.com
Encoded date : UTC 2010-02-22 21:41:31
Writing application : mkvmerge v5.9.0 (‘On The Loose’) built on Dec 9 2012 15:37:01
Writing library : libebml v1.3.0 + libmatroska v1.4.0

Video
ID : 1
Format : AVC
Format/Info : Advanced Video Codec
Format profile : [email protected]
Format settings : CABAC / 4 Ref Frames
Format settings, CABAC : Yes
Format settings, ReFrames : 4 frames
Codec ID : V_MPEG4/ISO/AVC
Duration : 1 h 39 min
Bit rate : 5 006 kb/s
Width : 1 280 pixels
Height : 720 pixels
Display aspect ratio : 1.85:1
Original display aspect rat : 1.85:1
Frame rate mode : Constant
Frame rate : 25.000 FPS
Color space : YUV
Chroma subsampling : 4:2:0
Bit depth : 8 bits
Scan type : Progressive
Bits/(Pixel*Frame) : 0.217
Stream size : 3.41 GiB (90%)
Title : DIEW.12.Disc.1.720p.DVDRip.AC3.x264.One2loadup.com
Writing library : x264 core 146 r2538 121396c
Encoding settings : cabac=1 / ref=3 / deblock=1:0:0 / analyse=0x3:0x113 / me=umh / subme=10 / psy=1 / psy_rd=1.00:0.00 / mixed_ref=1 / me_range=24 / chroma_me=1 / trellis=2 / 8x8dct=1 / cqm=0 / deadzone=21,11 / fast_pskip=1 / chroma_qp_offset=-2 / threads=12 / lookahead_threads=1 / sliced_threads=0 / nr=0 / decimate=1 / interlaced=0 / bluray_compat=0 / constrained_intra=0 / bframes=3 / b_pyramid=2 / b_adapt=1 / b_bias=0 / direct=1 / weightb=1 / open_gop=0 / weightp=2 / keyint=250 / keyint_min=25 / scenecut=40 / intra_refresh=0 / rc_lookahead=40 / rc=2pass / mbtree=1 / bitrate=5006 / ratetol=1.0 / qcomp=0.60 / qpmin=0 / qpmax=69 / qpstep=4 / cplxblur=20.0 / qblur=0.5 / ip_ratio=1.40 / aq=1:1.00
Language : Thai
Default : Yes
Forced : No

Audio
ID : 2
Format : AC-3
Format/Info : Audio Coding 3
Commercial name : Dolby Digital
Codec ID : A_AC3
Duration : 1 h 39 min
Bit rate mode : Constant
Bit rate : 448 kb/s
Channel(s) : 6 channels
Channel layout : L R C LFE Ls Rs
Sampling rate : 48.0 kHz
Frame rate : 31.250 FPS (1536 SPF)
Bit depth : 16 bits
Compression mode : Lossy
Stream size : 318 MiB (8%)
Language : Thai
Service kind : Complete Main
Default : Yes
Forced : No

Text #1
ID : 3
Format : VobSub
Codec ID : S_VOBSUB
Codec ID/Info : Picture based subtitle format used on DVDs
Language : Thai
Default : No
Forced : No

Text #2
ID : 4
Format : VobSub
Codec ID : S_VOBSUB
Codec ID/Info : Picture based subtitle format used on DVDs
Language : English
Default : No
Forced : No

Menu
00:00:00.000 : en:Chapter 01
00:05:50.640 : en:Chapter 02
00:11:57.000 : en:Chapter 03
00:15:40.360 : en:Chapter 04
00:19:32.720 : en:Chapter 05
00:38:38.120 : en:Chapter 06
00:45:52.960 : en:Chapter 07
01:03:35.080 : en:Chapter 08
01:17:54.360 : en:Chapter 09
01:24:08.280 : en:Chapter 10

DOWNLOAD DISC 1

DOWNLOAD DISC 2


DISC 1


PART01 |||| PART02 |||| PART03 |||| PART04

PART01 |||| PART02 |||| PART03 |||| PART04

PART01 |||| PART02 |||| PART03 |||| PART04

PART01 |||| PART02 |||| PART03 |||| PART04


DISC 2


PART01 |||| PART02 |||| PART03 |||| PART04

PART01 |||| PART02 |||| PART03 |||| PART04

PART01 |||| PART02 |||| PART03 |||| PART04

PART01 |||| PART02 |||| PART03 |||| PART04


Leave A Reply

Your email address will not be published.

%d bloggers like this: