โหลดหนัง HD MINI-HD SUPER-HQ Full-HD 1080p VIP Master Zoom ซูม หนังใหม่ ออนไลน์ มาสเตอร์ ไทย จีน ฝรั่ง การ์ตูน

[MINI Super-HQ] Maze Runner: The Scorch Trials (2015) เมซ รันเนอร์: สมรภูมิมอดไหม้ [1080P] [เสียงไทยมาสเตอร์ 5.1 + อังกฤษ DTS] [DTS.x264] [บรรยายไทย + อังกฤษ] [เสียงไทย + ซับไทย] [ONE2UP]

0

โหลดหนัง  [MINI Super-HQ] Maze Runner: The Scorch Trials (2015) เมซ รันเนอร์ สมรภูมิมอดไหม้ 

เรื่องย่อ Maze Runner: The Scorch Trials (2015) เมซ รันเนอร์ สมรภูมิมอดไหม้

เป็นเรื่องราวที่เริ่มขึ้นหลังจากชาวทุ่งได้หนีออกมาจากเขาวงกตได้ พวกเขาพวกองค์กรรับพาขึ้นเฮลิคอปเตอร์ไปยังที่ๆเรียกว่าแครงค์ ซึ่งพวกเขาคิดว่าสถานที่นี้เป็นที่ปลอดภัยสำหรับพวกเขาแล้ว แต่หารู้ไม่ว่า พวกเขาต้องเจอกับโลกใหม่ที่มีอันตรายรอบด้าน

Complete name : [MINI Super-HQ]_Maze.Runner.The Scorch.Trials.2015.1080p.DTS.x264.One2loadup.com.mkv
Format : Matroska
Format version : Version 4 / Version 2
File size : 4.32 GiB
Duration : 2 h 11 min
Overall bit rate : 4 699 kb/s
Movie name : www.HiDefHitz.com
Encoded date : UTC 2015-12-15 04:58:59
Writing application : mkvmerge v8.1.0 (‘Psychedelic Postcard’) 32bit
Writing library : libebml v1.3.1 + libmatroska v1.4.2

Video
ID : 1
Format : AVC
Format/Info : Advanced Video Codec
Format profile : [email protected]
Format settings, CABAC : Yes
Format settings, RefFrames : 4 frames
Codec ID : V_MPEG4/ISO/AVC
Duration : 2 h 11 min
Bit rate : 3 452 kb/s
Width : 1 920 pixels
Height : 800 pixels
Display aspect ratio : 2.40:1
Frame rate mode : Constant
Frame rate : 23.976 FPS
Color space : YUV
Chroma subsampling : 4:2:0
Bit depth : 8 bits
Scan type : Progressive
Bits/(Pixel*Frame) : 0.094
Stream size : 3.19 GiB (74%)
Title : [MINI Super-HQ]_Maze.Runner.The Scorch.Trials.2015.1080p.DTS.x264.One2loadup.com
Writing library : x264 core 146 r2538 121396c
Encoding settings : cabac=1 / ref=4 / deblock=1:-3:-3 / analyse=0x3:0x113 / me=umh / subme=11 / psy=1 / psy_rd=1.00:0.00 / mixed_ref=1 / me_range=64 / chroma_me=1 / trellis=2 / 8x8dct=1 / cqm=0 / deadzone=21,11 / fast_pskip=1 / chroma_qp_offset=-2 / threads=24 / lookahead_threads=2 / sliced_threads=0 / nr=0 / decimate=1 / interlaced=0 / bluray_compat=0 / constrained_intra=0 / bframes=4 / b_pyramid=2 / b_adapt=1 / b_bias=0 / direct=1 / weightb=1 / open_gop=0 / weightp=2 / keyint=250 / keyint_min=23 / scenecut=40 / intra_refresh=0 / rc_lookahead=120 / rc=2pass / mbtree=1 / bitrate=3452 / ratetol=1.0 / qcomp=0.60 / qpmin=0 / qpmax=69 / qpstep=4 / cplxblur=20.0 / qblur=0.5 / vbv_maxrate=99999 / vbv_bufsize=99999 / nal_hrd=none / filler=0 / ip_ratio=1.40 / aq=1:1.00
Language : English
Default : Yes
Forced : No

Audio #1
ID : 2
Format : AC-3
Format/Info : Audio Coding 3
Format settings, Endianness : Big
Codec ID : A_AC3
Duration : 2 h 11 min
Bit rate mode : Constant
Bit rate : 384 kb/s
Channel(s) : 6 channels
Channel positions : Front: L C R, Side: L R, LFE
Sampling rate : 48.0 kHz
Frame rate : 31.250 FPS (1536 SPF)
Bit depth : 16 bits
Compression mode : Lossy
Stream size : 362 MiB (8%)
Title : AC3 DVD MASTER ZAKKY
Language : Thai
Service kind : Complete Main
Default : Yes
Forced : Yes

Audio #2
ID : 3
Format : DTS
Format/Info : Digital Theater Systems
Mode : 16
Format settings, Endianness : Big
Codec ID : A_DTS
Duration : 2 h 11 min
Bit rate mode : Constant
Bit rate : 755 kb/s
Channel(s) : 6 channels
Channel positions : Front: L C R, Side: L R, LFE
Sampling rate : 48.0 kHz
Frame rate : 93.750 FPS (512 SPF)
Bit depth : 24 bits
Compression mode : Lossy
Stream size : 711 MiB (16%)
Title : DTS ZAKKY
Language : English
Default : No
Forced : No

Text #1
ID : 4
Format : VobSub
Codec ID : S_VOBSUB
Codec ID/Info : Picture based subtitle format used on DVDs
Title : 1080P TSA ZAKKY
Language : Thai
Default : No
Forced : No

Text #2
ID : 5
Format : VobSub
Codec ID : S_VOBSUB
Codec ID/Info : Picture based subtitle format used on DVDs
Title : 1080P TSA YELLOW ZAKKY
Language : Thai
Default : No
Forced : No

Text #3
ID : 6
Format : VobSub
Codec ID : S_VOBSUB
Codec ID/Info : Picture based subtitle format used on DVDs
Title : 1080P TSA UNDER ZAKKY
Language : Thai
Default : No
Forced : No

Text #4
ID : 7
Format : VobSub
Codec ID : S_VOBSUB
Codec ID/Info : Picture based subtitle format used on DVDs
Title : 1080P AS
Language : Thai
Default : No
Forced : No

Text #5
ID : 8
Format : VobSub
Codec ID : S_VOBSUB
Codec ID/Info : Picture based subtitle format used on DVDs
Title : 480P AS ZAKKY
Language : Thai
Default : No
Forced : No

Text #6
ID : 9
Format : UTF-8
Codec ID : S_TEXT/UTF8
Codec ID/Info : UTF-8 Plain Text
Title : SRT OCR MLOVE
Language : Thai
Default : No
Forced : No

Text #7
ID : 10
Format : PGS
Codec ID : S_HDMV/PGS
Codec ID/Info : Picture based subtitle format used on BDs/HD-DVDs
Title : TSA ZAKKY
Language : Thai
Default : Yes
Forced : Yes

Text #8
ID : 11
Format : PGS
Codec ID : S_HDMV/PGS
Codec ID/Info : Picture based subtitle format used on BDs/HD-DVDs
Title : TSA UNDER ZAKKY
Language : Thai
Default : No
Forced : No

Text #9
ID : 12
Format : PGS
Codec ID : S_HDMV/PGS
Codec ID/Info : Picture based subtitle format used on BDs/HD-DVDs
Title : AS ZAKKY
Language : Thai
Default : No
Forced : No

Text #10
ID : 13
Format : PGS
Codec ID : S_HDMV/PGS
Codec ID/Info : Picture based subtitle format used on BDs/HD-DVDs
Title : BD MASTER
Language : English
Default : No
Forced : No

Menu
00:00:00.000 : en:00:00:00.000
00:04:05.120 : en:00:04:05.120
00:05:59.818 : en:00:05:59.818
00:09:08.798 : en:00:09:08.798
00:11:55.840 : en:00:11:55.840
00:17:32.677 : en:00:17:32.677
00:23:21.191 : en:00:23:21.191
00:27:36.029 : en:00:27:36.029
00:33:10.238 : en:00:33:10.238
00:37:06.683 : en:00:37:06.683
00:41:30.988 : en:00:41:30.988
00:45:47.370 : en:00:45:47.370
00:51:57.781 : en:00:51:57.781
00:56:01.775 : en:00:56:01.775
01:00:56.319 : en:01:00:56.319
01:03:50.535 : en:01:03:50.535
01:07:29.254 : en:01:07:29.254
01:11:19.192 : en:01:11:19.192
01:15:32.820 : en:01:15:32.820
01:20:15.060 : en:01:20:15.060
01:27:47.471 : en:01:27:47.471
01:30:17.287 : en:01:30:17.287
01:34:04.013 : en:01:34:04.013
01:38:29.904 : en:01:38:29.904
01:40:52.546 : en:01:40:52.546
01:44:13.122 : en:01:44:13.122
01:51:51.872 : en:01:51:51.872
01:56:51.213 : en:01:56:51.213
02:01:02.714 : en:02:01:02.714
02:04:05.146 : en:02:04:05.146

 


PART01 |||| PART02 |||| PART03 |||| PART04 |||| PART05

PART01 |||| PART02 |||| PART03 |||| PART04 |||| PART05

PART01 |||| PART02 |||| PART03 |||| PART04 |||| PART05

PART01 |||| PART02 |||| PART03 |||| PART04 |||| PART05


Leave A Reply

Your email address will not be published.

%d bloggers like this: