เว็บโหลดหนัง HD MINI-HD SUPER-HQ Full-HD 1080p One2up VIP Mekafile Master Zoom ซูม หนังใหม่ ออนไลน์ มาสเตอร์ ไทย จีน ฝรั่ง การ์ตูน

[MINI Super-HQ] Man of Steel (2013) บุรุษเหล็กซูเปอร์แมน [1080p] [พากย์ไทย DTS + อังกฤษ DTS] [บรรยายไทย + อังกฤษ] [เสียงไทย + ซับไทย] [ONE2UP]

0

โหลดหนัง Man of Steel (2013) บุรุษเหล็กซูเปอร์แมน 

เรื่องย่อ Man of Steel (2013) บุรุษเหล็กซูเปอร์แมน

เมื่อดาวคริปทอนกำลังจะสูญสลาย อารยธรรมอันยิ่งใหญ่กำลังจะถูกทำลาย จอร์-เอลจึงส่งลูกชายของตัวเอง คาล-เอล มายังโลกมนุษย์เพื่อความอยู่รอด คาลเติบโตขึ้นมาท่ามกลางหมู่มนุษย์ธรรมดา แต่ชีวิตบนโลกไม่ได้ง่ายอย่างนั้น เพราะคาลมีพลังพิเศษเหนือมนุษย์ที่เขาต้องคอยเก็บซ่อนไว้ รอซักวันนึงเมื่อถึงเวลาอันสมควรที่เขาจะเปิดเผยตนเองและเปลี่ยนแปลงโลกใบนี้…

Complete name : [MINI Super-HQ]_Man.Of.Steel.2013.1080p.BrRip.DTS-TH.x264.One2loadup.com.mkv
Format : Matroska
Format version : Version 4 / Version 2
File size : 4.37 GiB
Duration : 2 h 23 min
Overall bit rate : 4 372 kb/s
Movie name : [MINI Super-HQ]_Man.Of.Steel.2013.1080p.BrRip.DTS-TH.x264.One2loadup.com
Encoded date : UTC 2010-02-22 21:41:31
Writing application : mkvmerge v5.9.0 (‘On The Loose’) built on Dec 9 2012 15:37:01
Writing library : libebml v1.3.0 + libmatroska v1.4.0

Video
ID : 1
Format : AVC
Format/Info : Advanced Video Codec
Format profile : [email protected]
Format settings, CABAC : Yes
Format settings, RefFrames : 4 frames
Codec ID : V_MPEG4/ISO/AVC
Duration : 2 h 23 min
Bit rate : 2 801 kb/s
Width : 1 920 pixels
Height : 800 pixels
Display aspect ratio : 2.40:1
Frame rate mode : Constant
Frame rate : 23.976 (23976/1000) FPS
Color space : YUV
Chroma subsampling : 4:2:0
Bit depth : 8 bits
Scan type : Progressive
Bits/(Pixel*Frame) : 0.076
Stream size : 2.77 GiB (63%)
Title : [MINI Super-HQ]_Man.Of.Steel.2013.1080p.BrRip.DTS-TH.x264.One2loadup.com
Writing library : x264 core 120
Encoding settings : cabac=1 / ref=3 / deblock=1:0:0 / analyse=0x3:0x113 / me=umh / subme=10 / psy=1 / psy_rd=1.00:0.00 / mixed_ref=1 / me_range=24 / chroma_me=1 / trellis=2 / 8x8dct=1 / cqm=0 / deadzone=21,11 / fast_pskip=1 / chroma_qp_offset=-2 / threads=12 / sliced_threads=0 / nr=0 / decimate=1 / interlaced=0 / bluray_compat=0 / constrained_intra=0 / bframes=3 / b_pyramid=2 / b_adapt=2 / b_bias=0 / direct=1 / weightb=1 / open_gop=0 / weightp=2 / keyint=240 / keyint_min=24 / scenecut=40 / intra_refresh=0 / rc_lookahead=50 / rc=2pass / mbtree=1 / bitrate=2801 / ratetol=1.0 / qcomp=0.60 / qpmin=3 / qpmax=69 / qpstep=4 / cplxblur=20.0 / qblur=0.5 / ip_ratio=1.40 / aq=1:1.00
Language : English
Default : Yes
Forced : No
Color range : Limited
Color primaries : BT.709
Transfer characteristics : BT.709
Matrix coefficients : BT.709

Audio #1
ID : 2
Format : DTS
Format/Info : Digital Theater Systems
Mode : 16
Format settings, Endianness : Big
Codec ID : A_DTS
Duration : 2 h 23 min
Bit rate mode : Constant
Bit rate : 755 kb/s
Channel(s) : 6 channels
Channel positions : Front: L C R, Side: L R, LFE
Sampling rate : 48.0 kHz
Frame rate : 93.750 FPS (512 SPF)
Bit depth : 24 bits
Compression mode : Lossy
Stream size : 772 MiB (17%)
Title : Thai DTS by Junjao
Language : Thai
Default : Yes
Forced : Yes

Audio #2
ID : 3
Format : DTS
Format/Info : Digital Theater Systems
Mode : 16
Format settings, Endianness : Big
Codec ID : A_DTS
Duration : 2 h 23 min
Bit rate mode : Constant
Bit rate : 755 kb/s
Channel(s) : 6 channels
Channel positions : Front: L C R, Side: L R, LFE
Sampling rate : 48.0 kHz
Frame rate : 93.750 FPS (512 SPF)
Bit depth : 24 bits
Compression mode : Lossy
Stream size : 772 MiB (17%)
Title : English DTS
Language : English
Default : No
Forced : No

Text #1
ID : 4
Format : VobSub
Codec ID : S_VOBSUB
Codec ID/Info : Picture based subtitle format used on DVDs
Title : Thai 480p From BluRay Master
Language : Thai
Default : No
Forced : No

Text #2
ID : 5
Format : VobSub
Codec ID : S_VOBSUB
Codec ID/Info : Picture based subtitle format used on DVDs
Title : Thai 720p From BluRay Master
Language : Thai
Default : No
Forced : No

Text #3
ID : 6
Format : VobSub
Codec ID : S_VOBSUB
Codec ID/Info : Picture based subtitle format used on DVDs
Title : Thai 1080p BluRay Master
Language : Thai
Default : Yes
Forced : Yes

Text #4
ID : 7
Format : VobSub
Codec ID : S_VOBSUB
Codec ID/Info : Picture based subtitle format used on DVDs
Title : Thai 1080p BluRay Master [Out]
Language : Thai
Default : No
Forced : No

Text #5
ID : 8
Format : VobSub
Codec ID : S_VOBSUB
Codec ID/Info : Picture based subtitle format used on DVDs
Title : Thai 1080p BluRay Master [BIG]
Language : Thai
Default : No
Forced : No

Text #6
ID : 9
Format : PGS
Codec ID : S_HDMV/PGS
Codec ID/Info : Picture based subtitle format used on BDs/HD-DVDs
Title : Thai PGS BluRay Master
Language : Thai
Default : No
Forced : No

Text #7
ID : 10
Format : PGS
Codec ID : S_HDMV/PGS
Codec ID/Info : Picture based subtitle format used on BDs/HD-DVDs
Title : Thai PGS BluRay Master [Out]
Language : Thai
Default : No
Forced : No

Text #8
ID : 11
Format : UTF-8
Codec ID : S_TEXT/UTF8
Codec ID/Info : UTF-8 Plain Text
Title : English
Language : English
Default : No
Forced : No

Menu
00:00:00.000 : en:(01)00:00:00:000
00:11:16.967 : en:(02)00:11:16:967
00:20:01.450 : en:(03)00:20:01:450
00:30:09.474 : en:(04)00:30:09:474
00:39:21.609 : en:(05)00:39:21:609
00:48:57.643 : en:(06)00:48:57:643
00:59:03.414 : en:(07)00:59:03:414
01:08:57.883 : en:(08)01:08:57:883
01:17:35.108 : en:(09)01:17:35:108
01:28:36.185 : en:(10)01:28:36:185
01:40:47.791 : en:(11)01:40:47:791
01:50:55.857 : en:(12)01:50:55:857
02:00:53.579 : en:(13)02:00:53:579
02:10:13.555 : en:(14)02:10:13:555
02:12:49.920 : en:(15)02:12:49:920
02:23:02.365 : en:(16)02:23:02:365

 

 

VIP โหลดไม่ได้แจ้งที่แชททางขวามือเลยจ้า


PART01 |||| PART02 |||| PART03 |||| PART04 |||| PART05

PART01 |||| PART02 |||| PART03 |||| PART04 |||| PART05

PART01 |||| PART02 |||| PART03 |||| PART04 |||| PART05

PART01 |||| PART02 |||| PART03 |||| PART04 |||| PART05


Leave A Reply

Your email address will not be published.

%d bloggers like this: