โหลดหนัง HD MINI-HD SUPER-HQ Full-HD 1080p VIP Master Zoom ซูม หนังใหม่ ออนไลน์ มาสเตอร์ ไทย จีน ฝรั่ง การ์ตูน

[Mini-HD] Kill Switch (2017) วันหายนะพลิกโลก [1080p] [พากย์ไทยโรง 5.1 + อังกฤษ 5.1] [ซับอังกฤษ] [ONE2UP]

0

โหลดหนัง  [Mini-HD] Kill Switch (2017) วันหายนะพลิกโลก [1080p] [พากย์ไทยโรง 5.1 + อังกฤษ 5.1] [ซับอังกฤษ] [ONE2UP]

เรื่องย่อ Kill Switch เมื่อการทดลองเกี่ยวโลกคู่ขนานผิดพลาด ผนังของมิติแตกออก ชะตากรรมของทั้งสองโลกจึงอยู่ในมือของ วิล พอร์เตอร์ (แดน สตีเว่นส์) ผู้ที่จะนำกล่องสีดำลึกลับเข้าไปในหอคอยของโลกคู่ขนานเพื่อแก้ไขสถานการณ์และช่วยเหลือมนุษยชาติ ทว่าเขากลับถูกไล่ล่าโดยกองกำลังที่พยายามขัดขวางภารกิจของเขา

Complete name : [MINI-HD]_Kill.Switch.2017.1080p.WEB-DL.AC3.5.1.H264.One2loadup.com.mkv
Format : Matroska
Format version : Version 4 / Version 2
File size : 3.42 GiB
Duration : 1 h 31 min
Overall bit rate : 5 363 kb/s
Movie name : [MINI-HD]_Kill.Switch.2017.1080p.WEB-DL.AC3.5.1.H264.One2loadup.com
Encoded date : UTC 2017-07-16 15:13:45
Writing application : mkvmerge v10.0.0 (‘To Drown In You’) 64bit
Writing library : libebml v1.3.4 + libmatroska v1.4.5

Video
ID : 1
Format : AVC
Format/Info : Advanced Video Codec
Format profile : [email protected]
Format settings, CABAC : Yes
Format settings, RefFrames : 5 frames
Codec ID : V_MPEG4/ISO/AVC
Duration : 1 h 31 min
Bit rate : 4 528 kb/s
Width : 1 904 pixels
Height : 792 pixels
Display aspect ratio : 2.40:1
Frame rate mode : Constant
Frame rate : 23.976 (23976/1000) FPS
Color space : YUV
Chroma subsampling : 4:2:0
Bit depth : 8 bits
Scan type : Progressive
Bits/(Pixel*Frame) : 0.125
Stream size : 2.89 GiB (84%)
Title : [MINI-HD]_Kill.Switch.2017.1080p.WEB-DL.AC3.5.1.H264.One2loadup.com
Language : English
Default : Yes
Forced : No
Color range : Limited
Color primaries : BT.709
Transfer characteristics : BT.709
Matrix coefficients : BT.709

Audio #1
ID : 2
Format : AC-3
Format/Info : Audio Coding 3
Format settings, Endianness : Big
Codec ID : A_AC3
Duration : 1 h 31 min
Bit rate mode : Constant
Bit rate : 448 kb/s
Channel(s) : 6 channels
Channel positions : Front: L C R, Side: L R, LFE
Sampling rate : 48.0 kHz
Frame rate : 31.250 FPS (1536 SPF)
Bit depth : 16 bits
Compression mode : Lossy
Delay relative to video : -42 ms
Stream size : 292 MiB (8%)
Title : AC-3 ThaiRong 5.1 By Captain
Language : Thai
Service kind : Complete Main
Default : Yes
Forced : No

Audio #2
ID : 3
Format : AC-3
Format/Info : Audio Coding 3
Format settings, Endianness : Big
Codec ID : A_AC3
Duration : 1 h 31 min
Bit rate mode : Constant
Bit rate : 384 kb/s
Channel(s) : 6 channels
Channel positions : Front: L C R, Side: L R, LFE
Sampling rate : 48.0 kHz
Frame rate : 31.250 FPS (1536 SPF)
Bit depth : 16 bits
Compression mode : Lossy
Delay relative to video : -42 ms
Stream size : 251 MiB (7%)
Title : AC-3 English 5.1
Language : English
Service kind : Complete Main
Default : No
Forced : No

Text
ID : 4
Format : UTF-8
Codec ID : S_TEXT/UTF8
Codec ID/Info : UTF-8 Plain Text
Duration : 1 h 29 min
Bit rate : 47 b/s
Count of elements : 882
Stream size : 31.1 KiB (0%)
Title : Sub English
Language : English
Default : Yes
Forced : No

Menu
00:00:00.000 : en:Opening Sequence
00:05:37.000 : en:Echo Damage Report
00:11:20.000 : en:In The Dark
00:17:19.000 : en:Gravitational Portal
00:23:50.000 : en:Restricted Area
00:29:28.000 : en:Greatest Challenge Yet
00:36:45.000 : en:Homesick
00:41:01.000 : en:They Evacuated
00:47:10.000 : en:Back Me Up
00:53:24.000 : en:It’s This Whole Place
00:58:09.000 : en:Give Me The Box
01:04:22.000 : en:Don’t Go
01:09:03.000 : en:Don’t Trust Him
01:15:02.000 : en:Where’s The Box?
01:21:13.000 : en:A Big Responsibility
01:27:27.000 : en:End Credits

 



PART01 |||| PART02 |||| PART03 |||| PART04


PART01 |||| PART02 |||| PART03 |||| PART04


PART01 |||| PART02 |||| PART03 |||| PART04


Leave A Reply

Your email address will not be published.

%d bloggers like this: