เว็บโหลดหนัง HD MINI-HD SUPER-HQ Full-HD 1080p One2up VIP Master Zoom ซูม หนังใหม่ ออนไลน์ มาสเตอร์ ไทย จีน ฝรั่ง การ์ตูน

[ฝรั่ง] Jumanji: Welcome to the Jungle (2017) เกมดูดโลก บุกป่ามหัศจรรย์ [ภาพเกือบชัด 720p] [พากย์ไทยโรง 2.0 + เสียงอังกฤษ 2.0] [บรรยายเกาหลีฝัง] [เสียงไทยโรง] [ONE2UP]

0

โหลดหนัง  Jumanji: Welcome to the Jungle (2017) เกมดูดโลก บุกป่ามหัศจรรย์

เรื่องย่อ Jumanji: Welcome to the Jungle (2017) เกมดูดโลก บุกป่ามหัศจรรย์

Jumanji ภาพยนตร์ภาคต่อที่จะมาสานความมันส์และการผจญภัย หลังจากที่เคยสร้างความประทับใจเมื่อปี 1995 ซึ่งภาคที่แล้ว เกมกระดานจูแมนจี้ได้ดูดชายชื่ออลัน (โรบิน วิลเลียมส์) เข้าไปในเกม และเกมก็ถูกปลดปล่อยออกมานำบรรดาสิงสาราสัตว์มาถล่มโลกแห่งความเป็นจริง

Complete name : Jumanji.Welcome.to.the.Jungle.2017.720p.KORSUB.HDRip.X264.AC-3.THR2.0.One2loadup.com.mkv
Format : Matroska
Format version : Version 4 / Version 2
File size : 1.26 GiB
Duration : 1 h 59 min
Overall bit rate : 1 514 kb/s
Movie name : Jumanji.Welcome.to.the.Jungle.2017.720p.KORSUB.HDRip.X264.AC-3.THR2.0.One2loadup.com
Encoded date : UTC 2018-03-04 05:04:20
Writing application : mkvmerge v9.9.0 (‘Pick Up’) 64bit
Writing library : libebml v1.3.4 + libmatroska v1.4.5 / Lavf55.22.102
Cover : Yes
Attachments : cover.jpg

Video
ID : 1
Format : AVC
Format/Info : Advanced Video Codec
Format profile : [email protected]
Format settings, CABAC : Yes
Format settings, RefFrames : 4 frames
Codec ID : V_MPEG4/ISO/AVC
Duration : 1 h 59 min
Bit rate : 1 200 kb/s
Width : 1 280 pixels
Height : 720 pixels
Display aspect ratio : 16:9
Frame rate mode : Constant
Frame rate : 30.000 FPS
Color space : YUV
Chroma subsampling : 4:2:0
Bit depth : 8 bits
Scan type : Progressive
Bits/(Pixel*Frame) : 0.043
Stream size : 1 014 MiB (79%)
Title : Jumanji.Welcome.to.the.Jungle.2017.720p.KORSUB.HDRip.X264.AC-3.THR2.0.One2loadup.com
Writing library : x264 core 119
Encoding settings : cabac=1 / ref=1 / deblock=1:0:0 / analyse=0x1:0x1 / me=dia / subme=1 / psy=1 / psy_rd=1.00:0.00 / mixed_ref=0 / me_range=16 / chroma_me=1 / trellis=0 / 8x8dct=0 / cqm=0 / deadzone=21,11 / fast_pskip=1 / chroma_qp_offset=0 / threads=4 / sliced_threads=0 / nr=0 / decimate=1 / interlaced=0 / bluray_compat=0 / constrained_intra=0 / bframes=3 / b_pyramid=2 / b_adapt=1 / b_bias=0 / direct=1 / weightb=1 / open_gop=0 / weightp=1 / keyint=250 / keyint_min=25 / scenecut=40 / intra_refresh=0 / rc=abr / mbtree=0 / bitrate=1200 / ratetol=1.0 / qcomp=0.60 / qpmin=0 / qpmax=69 / qpstep=4 / ip_ratio=1.40 / pb_ratio=1.30 / aq=1:1.00
Language : Korean
Default : Yes
Forced : No

Audio #1
ID : 2
Format : AC-3
Format/Info : Audio Coding 3
Format settings, Endianness : Big
Codec ID : A_AC3
Duration : 1 h 59 min
Bit rate mode : Constant
Bit rate : 192 kb/s
Channel(s) : 2 channels
Channel positions : Front: L R
Sampling rate : 48.0 kHz
Frame rate : 31.250 FPS (1536 SPF)
Bit depth : 16 bits
Compression mode : Lossy
Delay relative to video : -67 ms
Stream size : 164 MiB (13%)
Title : THR 2.0 Modified By ~Mr.Captain~
Language : Thai
Service kind : Complete Main
Default : Yes
Forced : No

Audio #2
ID : 3
Format : MPEG Audio
Format version : Version 1
Format profile : Layer 3
Mode : Joint stereo
Mode extension : MS Stereo
Codec ID : A_MPEG/L3
Codec ID/Hint : MP3
Duration : 1 h 59 min
Bit rate mode : Constant
Bit rate : 128 kb/s
Channel(s) : 2 channels
Sampling rate : 48.0 kHz
Frame rate : 41.667 FPS (1152 SPF)
Compression mode : Lossy
Delay relative to video : -2 ms
Stream size : 109 MiB (8%)
Title : English 2.0
Writing library : LAME3.98.4
Language : English
Default : No
Forced : No


PART01 |||| PART02

PART01 |||| PART02

PART01 |||| PART02

PART01 |||| PART02


Leave A Reply

Your email address will not be published.

%d bloggers like this: